MAGNAT ®

Пол:
Мужской
Стаж:
1 год
Сообщений:
4495

Гарриет / Harriet
Страна: США
Жанр: биография, история, драма
Год выпуска: 2019
Продолжительность: 02:05:06-Перевод: Профессиональный (дублированный) | iTunes
Субтитры: нет
Оригинальная аудиодорожка: нет-Режиссер:
Кейси Леммонс / Kasi Lemmons-В ролях: Синтия Эриво, Лесли Одом мл., Джо Элвин, Кларк Питерс, Ванесса Белл Кэллоуэй, Омар Дж. Дорси, Генри Хантер Холл, Тим Гини, Ник Баста, Джозеф Андерсон, Антонио Джей Белл, СиДжей МакБат, Алексис Лодер, Жанель Моне, Вонди Куртис-Холл, Дженнифер Неттлз-Описание: История Гарриет Табмен, бывшей рабыни и аболиционистки, которая посвятила жизнь борьбе против рабства. Гарриет регулярно совершала поездки на юг, откуда вывозила рабов, и приняла активное участие в деятельности подземной железной дороги, переправлявшей беглых рабов из южных штатов на Север или в Канаду.-Качество видео: BDRip | Harriet.2019.1080p.BluRay.REMUX.AVC.DTS-HD.MA.7.1-FGT
Формат видео: AVI
Видео: 720x304 (2.37:1), 23.976 fps, XviD build 73 ~1469 kbps avg, 0.28 bit/pixel
Аудио: 48 kHz, AC3 Dolby Digital, 2/0 (L,R) ch, ~192 kbps-

MediaInfo

Код:
Формат : AVI
Формат/Информация : Audio Video Interleave
Размер файла : 1,46 Гбайт
Продолжительность : 2 ч. 5 м.
Общий поток : 1671 Кбит/сек
Название фильма : Гарриет_2019_BDRip
Программа кодирования : VirtualDubMod 1.5.10.3 | www.virtualdub-fr.org || (build 2550/release)
Авторское право : порошков
Видео
Идентификатор : 0
Формат : MPEG-4 Visual
Профиль формата : Advanced Simple@L5
Настройки формата : BVOP1 / Custom Matrix
Параметр BVOP формата : 1
Параметр QPel формата : Нет
Параметр GMC формата : Без точки перехода
Параметр матрицы формата : Выборочная
Идентификатор кодека : XVID
Идентификатор кодека/Подсказка : XviD
Продолжительность : 2 ч. 5 м.
Битрейт : 1469 Кбит/сек
Ширина : 720 пикселей
Высота : 304 пикселя
Соотношение сторон : 2,35:1
Частота кадров : 23,976 (24000/1001) кадра/сек
Цветовое пространство : YUV
Субдискретизация насыщенности : 4:2:0
Битовая глубина : 8 бит
Тип развёртки : Прогрессивная
Метод сжатия : С потерями
Бит/(Пиксели*Кадры) : 0.280
Размер потока : 1,28 Гбайт (88%)
Библиотека кодирования : XviD 73
Аудио
Идентификатор : 1
Формат : AC-3
Формат/Информация : Audio Coding 3
Коммерческое название : Dolby Digital
Идентификатор кодека : 2000
Продолжительность : 2 ч. 5 м.
Вид битрейта : Постоянный
Битрейт : 192 Кбит/сек
Каналы : 2 канала
ChannelLayout : L R
Частота : 48,0 КГц
Частота кадров : 31,250 кадров/сек (1536 SPF)
Метод сжатия : С потерями
Размер потока : 172 Мбайт (11%)
Выравнивание : Разделение по промежуткам
Продолжительность промежутка : 42 мс. (1,00 видеокадр)
Время предзагрузки промежутка : 500 мс.
ServiceKind/String : Complete Main

Скриншоты


Профиль [ЛС]
Показать сообщения:    

Текущее время: 06-Апр 06:37

Часовой пояс: UTC ± 0



Вы не можете начинать темы
Вы не можете отвечать на сообщения
Вы не можете редактировать свои сообщения
Вы не можете удалять свои сообщения
Вы не можете голосовать в опросах
Вы не можете прикреплять файлы к сообщениям
Вы не можете скачивать файлы