MAGNAT ®

Пол:
Мужской
Стаж:
1 год
Сообщений:
4495

Номер первый
Numéro une- Страна: Бельгия, Франция
Жанр: драма, психологический триллер
Год выпуска: 2017
Продолжительность: 01:45:13
Перевод: Субтитры (русский перевод Е.Маньен, компания ECLAIR)
Субтитры: русские, английские, французские, немецкие, нидерландские, румынские, испанские
Оригинальная аудиодорожка: французский/английский/китайский
Режиссер: Тони Маршалл / Tonie Marshall
В ролях: Эммануэль Дево / Emmanuelle Devos (Emmanuelle Blachey), Сюзанн Клеман / Suzanne Clément (Véra Jacob), Ришар Берри / Richard Berry (Jean Beaumel), Сами Фрей / Sami Frey (Henri Blachey), Бенжамен Бьолэ / Benjamin Biolay (Marc Ronsin), Франсин Берже / Francine Bergé (Adrienne Postel-Devaux), Энн Азулай / Anne Azoulay (Claire Dormoy), Бернар Верле / Bernard Verley (Jean Archambault), Джон Линч / John Lynch (Gary Adams), Летиция Массон / Laetitia Masson (Femme Club Olympe), Филипп Ле Гюэ / Philippe Le Guay (Homme à l'opéra)
Описание: Благодаря своим деловым качествам инженер Эмманюэль Блаше получила высокую должность в исполнительном комитете крупной французской энергетической компании. 20-летний брак с любимым мужчиной, двое детей - все кажется идеальной жизнью. Но однажды мощная и влиятельная женская сеть предлагает ей стать президентом компании "Антея". И чтобы оставаться на вершине, она должна рисковать всем...
Качество видео: HDTVRip-AVC
Формат видео: MKV
Видео: AVC (H.264), 1152х624 (1.85:1), 25 fps, ~1804 kbps avg, 0.100 bit/pixel
Аудио: AC3, 2 ch, 48 kHz, 192 kbps - французский/английский/китайский
Формат субтитров: softsub (SRT), hardsub (неотключаемые) - французские форсированные на нефранцузскую речь

Пример субтитров

1
00:01:02,040 --> 00:01:04,540
НОМЕР ПЕРВЫЙ
2
00:01:09,439 --> 00:01:11,314
Привет, подруга!
Это я, Кароль.
3
00:01:11,314 --> 00:01:13,676
Думала тебя повидать,
а ты в Довиле.
4
00:01:13,676 --> 00:01:18,468
Что ж, увидимся
в мой следующий приезд.
5
00:01:18,468 --> 00:01:20,354
Это Соня.
Звонили из больницы.
6
00:01:20,354 --> 00:01:24,513
Вашего отца привезут
после обеда.
7
00:01:24,513 --> 00:01:27,318
Ксавье Турнер беспокоит.
Я сразу к делу.
8
00:01:27,318 --> 00:01:29,397
Не выступишь с лекцией
в ИПИ?
9
00:01:29,397 --> 00:01:33,592
У тебя плотный график, но...
10
00:01:33,592 --> 00:01:36,355
Приятно мой член
облизывать?
11
00:01:36,355 --> 00:01:38,792
Вкусно? Добавки хочешь?
Шлюха.
12
00:01:38,792 --> 00:01:41,542
Грязная шлюха.
13
00:01:42,314 --> 00:01:44,954
Могли бы и извиниться!
14
00:01:44,954 --> 00:01:46,595
Вот дрянь.
15
00:01:46,595 --> 00:01:49,273
-Не ушиблись?
-Все в порядке. Но вы правы.
16
00:01:49,273 --> 00:01:51,023
Дрянь!
17
00:01:53,554 --> 00:01:57,554
-До свидания.
-Спасибо.
18
00:02:03,362 --> 00:02:05,987
Здравствуйте.
19
00:02:09,398 --> 00:02:12,630
Наш Женский форум -
ваша победа.
20
00:02:12,630 --> 00:02:16,275
Он рассчитан на женщин,
мечтающих изменить мир!

MediaInfo

General
Unique ID : 15088492020472062219859492528323789140 (0xB59F017943B8CF520349FF8AB238154)
Complete name : [apreder]Numero_une(2017)HDTVRip.mkv
Format : Matroska
Format version : Version 2
File size : 1.47 GiB
Duration : 1 h 45 min
Overall bit rate : 1 999 kb/s
Movie name : Numero une
Released date : 2017-10-17
Encoded date : UTC 2020-03-21 13:46:27
Writing application : mkvmerge v44.0.0 ('Domino') 64-bit
Writing library : libebml v1.3.10 + libmatroska v1.5.2
Cover : Yes
Attachments : cover.jpg / small_cover.jpg
ACTOR : Emmanuelle Devos, Suzanne Clement, Richard Berry
DIRECTOR : Tonie Marshall
GENRE : Drama, Thriller
IMDB : tt6741568
KEYWORDS : rutracker.org
LAW_RATING : 16+
Video
ID : 1
Format : AVC
Format/Info : Advanced Video Codec
Format profile : High@L4.1
Format settings : CABAC / 9 Ref Frames
Format settings, CABAC : Yes
Format settings, Reference frames : 9 frames
Codec ID : V_MPEG4/ISO/AVC
Duration : 1 h 45 min
Bit rate : 1 804 kb/s
Width : 1 152 pixels
Height : 624 pixels
Display aspect ratio : 1.85:1
Frame rate mode : Constant
Frame rate : 25.000 FPS
Color space : YUV
Chroma subsampling : 4:2:0
Bit depth : 8 bits
Scan type : Progressive
Bits/(Pixel*Frame) : 0.100
Stream size : 1.30 GiB (88%)
Writing library : x264 core 157 r2969 d4099dd
Encoding settings : cabac=1 / ref=9 / deblock=1:-1:-1 / analyse=0x3:0x133 / me=umh / subme=10 / psy=1 / psy_rd=1.00:0.15 / mixed_ref=1 / me_range=24 / chroma_me=1 / trellis=2 / 8x8dct=1 / cqm=0 / deadzone=21,11 / fast_pskip=1 / chroma_qp_offset=-3 / threads=18 / lookahead_threads=3 / sliced_threads=0 / nr=0 / decimate=1 / interlaced=0 / bluray_compat=0 / constrained_intra=0 / bframes=8 / b_pyramid=2 / b_adapt=2 / b_bias=0 / direct=3 / weightb=1 / open_gop=0 / weightp=2 / keyint=250 / keyint_min=25 / scenecut=40 / intra_refresh=0 / rc_lookahead=60 / rc=2pass / mbtree=1 / bitrate=1804 / ratetol=1.0 / qcomp=0.60 / qpmin=0 / qpmax=69 / qpstep=4 / cplxblur=20.0 / qblur=0.5 / vbv_maxrate=62500 / vbv_bufsize=78125 / nal_hrd=none / filler=0 / ip_ratio=1.40 / aq=1:1.00
Default : Yes
Forced : No
Audio
ID : 2
Format : AC-3
Format/Info : Audio Coding 3
Commercial name : Dolby Digital
Codec ID : A_AC3
Duration : 1 h 45 min
Bit rate mode : Constant
Bit rate : 192 kb/s
Channel(s) : 2 channels
Channel layout : L R
Sampling rate : 48.0 kHz
Frame rate : 31.250 FPS (1536 SPF)
Compression mode : Lossy
Stream size : 145 MiB (10%)
Language : French
Service kind : Complete Main
Default : Yes
Forced : No
Text #1
ID : 3
Format : UTF-8
Codec ID : S_TEXT/UTF8
Codec ID/Info : UTF-8 Plain Text
Language : Russian
Default : Yes
Forced : No
Text #2
ID : 4
Format : UTF-8
Codec ID : S_TEXT/UTF8
Codec ID/Info : UTF-8 Plain Text
Language : English
Default : No
Forced : No
Text #3
ID : 5
Format : UTF-8
Codec ID : S_TEXT/UTF8
Codec ID/Info : UTF-8 Plain Text
Language : French
Default : No
Forced : No
Text #4
ID : 6
Format : UTF-8
Codec ID : S_TEXT/UTF8
Codec ID/Info : UTF-8 Plain Text
Language : German
Default : No
Forced : No
Text #5
ID : 7
Format : UTF-8
Codec ID : S_TEXT/UTF8
Codec ID/Info : UTF-8 Plain Text
Language : Dutch
Default : No
Forced : No
Text #6
ID : 8
Format : UTF-8
Codec ID : S_TEXT/UTF8
Codec ID/Info : UTF-8 Plain Text
Language : Romanian
Default : No
Forced : No
Text #7
ID : 9
Format : UTF-8
Codec ID : S_TEXT/UTF8
Codec ID/Info : UTF-8 Plain Text
Language : Spanish
Default : No
Forced : No

Скриншот c названием фильма

Скриншоты


Резервные скриншоты


-
Профиль [ЛС]
Показать сообщения:    

Текущее время: 06-Апр 04:32

Часовой пояс: UTC ± 0



Вы не можете начинать темы
Вы не можете отвечать на сообщения
Вы не можете редактировать свои сообщения
Вы не можете удалять свои сообщения
Вы не можете голосовать в опросах
Вы не можете прикреплять файлы к сообщениям
Вы не можете скачивать файлы