MAGNAT ®

Пол:
Мужской
Стаж:
1 год
Сообщений:
4495

Начни сначала / Second Act- Страна: США
Жанр: драма, мелодрама, комедия
Год выпуска: 2018
Продолжительность: 01:44:01
Перевод: Профессиональный (дублированный) iTunes
Субтитры: английские
Оригинальная аудиодорожка: английский
Режиссер: Питер Сигал / Peter Segal
В ролях: Дженнифер Лопес, Ванесса Энн Хадженс, Леа Ремини, Трит Уильямс, Майло Вентимилья, Аннали Эшфорд, Шарлин Йи, Алан Айзенберг, Фредди Строма, Дэйв Фоли
Описание: Когда Майя уже перестала надеяться, что ее мечты осуществятся, она случайно получает работу в большой корпорации. Теперь у нее есть шанс доказать снобам с Мэдисон Авеню, что врожденный талант и блестящий креатив так же важны, как и диплом престижного университета. И не имеет значения, что у тебя за спиной, — ведь никогда не поздно начать сначала!
Качество видео: BDRip-AVC
Формат видео: MKV
Видео: x264, 1084x454 (2.40:1) 23.976 fps, ~1927 kbps, 0,163 bit/pixelv
Аудио 1: 48 kHz, AC3 Dolby Digital, 3/2 (L,C,R,l,r) + LFE ch, ~384 kbps [русский, iTunes Russia]
Аудио 2: 48 kHz, AC3 Dolby Digital, 3/2 (L,C,R,l,r) + LFE ch, ~448 kbps [английский]
Формат субтитров: softsub (SRT)

MediaInfo

General
Unique ID : 207655538232201401328680120073141160726 (0x9C39007DD2FD0342FF303750BDF10B16)
Format : Matroska
Format version : Version 4 / Version 2
File size : 2.01 GiB
Duration : 1h 44mn
Overall bit rate : 2 761 Kbps
Encoded date : UTC 2020-03-22 06:32:29
Writing application : mkvmerge v44.0.0 ('Domino') 64-bit
Writing library : libebml v1.3.10 + libmatroska v1.5.2
Video #1
ID : 1
Format : AVC
Format/Info : Advanced Video Codec
Format profile : High@L4.1
Format settings, CABAC : Yes
Format settings, ReFrames : 13 frames
Codec ID : V_MPEG4/ISO/AVC
Duration : 1h 44mn
Bit rate : 1 927 Kbps
Width : 1 084 pixels
Height : 454 pixels
Display aspect ratio : 2.40:1
Frame rate mode : Constant
Frame rate : 23.976 (24000/1001) fps
Color space : YUV
Chroma subsampling : 4:2:0
Bit depth : 8 bits
Scan type : Progressive
Bits/(Pixel*Frame) : 0.163
Stream size : 1.40 GiB (70%)
Writing library : x264 core 159 r2991 1771b55
Encoding settings : cabac=1 / ref=13 / deblock=1:-3:-2 / analyse=0x3:0x133 / me=umh / subme=10 / psy=1 / psy_rd=1.00:0.00 / mixed_ref=1 / me_range=32 / chroma_me=1 / trellis=2 / 8x8dct=1 / cqm=0 / deadzone=21,11 / fast_pskip=0 / chroma_qp_offset=-2 / threads=6 / lookahead_threads=1 / sliced_threads=0 / nr=0 / decimate=1 / interlaced=0 / bluray_compat=0 / constrained_intra=0 / bframes=11 / b_pyramid=2 / b_adapt=2 / b_bias=0 / direct=1 / weightb=1 / open_gop=0 / weightp=2 / keyint=250 / keyint_min=23 / scenecut=40 / intra_refresh=0 / rc=crf / mbtree=0 / crf=19.6 / qcomp=0.65 / qpmin=0 / qpmax=69 / qpstep=4 / ip_ratio=1.40 / pb_ratio=1.30 / aq=3:0.90
Language : English
Default : Yes
Forced : No
Audio #2
ID : 2
Format : AC-3
Format/Info : Audio Coding 3
Mode extension : CM (complete main)
Format settings, Endianness : Big
Codec ID : A_AC3
Duration : 1h 44mn
Bit rate mode : Constant
Bit rate : 384 Kbps
Channel(s) : 6 channels
Channel positions : Front: L C R, Side: L R, LFE
Sampling rate : 48.0 KHz
Frame rate : 31.250 fps (1536 spf)
Compression mode : Lossy
Stream size : 286 MiB (14%)
Title : iTunes
Language : Russian
Default : Yes
Forced : Yes
Audio #3
ID : 3
Format : AC-3
Format/Info : Audio Coding 3
Mode extension : CM (complete main)
Format settings, Endianness : Big
Codec ID : A_AC3
Duration : 1h 44mn
Bit rate mode : Constant
Bit rate : 448 Kbps
Channel(s) : 6 channels
Channel positions : Front: L C R, Side: L R, LFE
Sampling rate : 48.0 KHz
Frame rate : 31.250 fps (1536 spf)
Compression mode : Lossy
Stream size : 333 MiB (16%)
Language : English
Default : No
Forced : No
Text #4
ID : 4
Format : UTF-8
Codec ID : S_TEXT/UTF8
Codec ID/Info : UTF-8 Plain Text
Duration : 1h 36mn
Bit rate : 82 bps
Count of elements : 1731
Stream size : 57.9 KiB (0%)
Language : English
Default : No
Forced : No

лог

raw [info]: 1084x454p 1:1 @ 24000/1001 fps (cfr)
x264 [info]: using SAR=1/1
x264 [info]: using cpu capabilities: MMX2 SSE2Fast SSSE3 SSE4.2 AVX XOP FMA3 BMI1
x264 [info]: profile High, level 4.1, 4:2:0, 8-bit
x264 [info]: frame I:1435 Avg QP:18.28 size: 63022
x264 [info]: frame P:29318 Avg QP:19.90 size: 22460
x264 [info]: frame B:118886 Avg QP:22.12 size: 6348
x264 [info]: consecutive B-frames: 1.5% 1.1% 4.1% 16.1% 20.5% 45.8% 5.8% 1.1% 1.4% 0.9% 0.6% 0.9%
x264 [info]: mb I I16..4: 4.4% 76.8% 18.9%
x264 [info]: mb P I16..4: 0.6% 7.8% 1.3% P16..4: 41.0% 24.3% 17.7% 0.7% 0.2% skip: 6.4%
x264 [info]: mb B I16..4: 0.0% 0.4% 0.1% B16..8: 41.0% 10.4% 3.1% direct: 4.0% skip:40.9% L0:44.1% L1:45.9% BI:10.0%
x264 [info]: 8x8 transform intra:78.8% inter:62.7%
x264 [info]: coded y,uvDC,uvAC intra: 89.9% 72.8% 46.2% inter: 21.0% 10.4% 1.2%
x264 [info]: i16 v,h,dc,p: 46% 17% 7% 31%
x264 [info]: i8 v,h,dc,ddl,ddr,vr,hd,vl,hu: 15% 8% 7% 9% 13% 13% 12% 11% 11%
x264 [info]: i4 v,h,dc,ddl,ddr,vr,hd,vl,hu: 15% 8% 3% 9% 14% 15% 13% 11% 11%
x264 [info]: i8c dc,h,v,p: 37% 26% 23% 14%
x264 [info]: Weighted P-Frames: Y:5.6% UV:3.4%
x264 [info]: ref P L0: 45.4% 13.1% 16.6% 5.9% 4.9% 3.6% 3.1% 1.6% 1.5% 1.2% 1.1% 0.9% 1.0% 0.0% 0.0%
x264 [info]: ref B L0: 70.5% 11.5% 6.2% 3.2% 2.4% 1.9% 1.6% 0.9% 0.7% 0.6% 0.4% 0.2%
x264 [info]: ref B L1: 93.1% 6.9%
x264 [info]: kb/s:1927.30
x264 [total]: encoded 149639 frames, 6.78 fps, 1927.30 kb/s

Скриншоты


Профиль [ЛС]
Показать сообщения:    

Текущее время: 06-Апр 05:16

Часовой пояс: UTC ± 0



Вы не можете начинать темы
Вы не можете отвечать на сообщения
Вы не можете редактировать свои сообщения
Вы не можете удалять свои сообщения
Вы не можете голосовать в опросах
Вы не можете прикреплять файлы к сообщениям
Вы не можете скачивать файлы