MAGNAT ®

Пол:
Мужской
Стаж:
1 год
Сообщений:
4495

Мистериум. Тьма в бутылке / Flaskepost fra P
Страна: Дания, Германия, Швеция
Жанр: триллер, драма
Год выпуска: 2016
Продолжительность: 01:51:29
Перевод: Авторский (одноголосый закадровый) Юрий Немахов
Субтитры: нет
Режиссер: Ганс Петтер Моланд / Hans Petter Moland
В ролях: Николай Ли Каас, Фарес Фарес, Пол Хаген, Якоб Ломанн, Джохэнн Шмидт, Якоб Офтебро, Сигне Маннов, Сёрен Пильмарк, Михаэль Броструп
Описание: Море охотно делится секретами с теми, кто не боится поднять его дары. Послание, запечатанное в бутылке и вынесенное на берег, становится первой ниточкой к раскрытию серии преступлений, о которых никто не подозревал много лет. Полиция Копенгагена занимается раскрытием нового дела, начало которого положила записка в бутылке, найденная на побережье. Размытая водой просьба помочь явно принадлежит детской руке. На свободе безнаказанно гуляет преступник, и, судя по всему, пострадал не один ребёнок. Детективам придётся рассмотреть множество пропаж многолетней давности...
Качество видео: BDRip
Формат видео: AVI
Видео: XviD 73, 720x304, (2,35:1), 24,000 fps, 1473 Кбит/с, 8 бит, 0.28 bit/pixel
Аудио: Русский (АС3, 6 ch (Front: L C R, Side: L R, LFE), 48,0 KHz, 384 Kbps

MediaInfo

Общее
Полное имя : D:\Фильмы на трекер\Мистериум. Тьма в бутылке (триллер, драма 2016 год).avi
Формат : AVI
Формат/Информация : Audio Video Interleave
Размер файла : 1,45 Гбайт
Продолжительность : 1 ч. 51 м.
Общий поток : 1867 Кбит/сек
Программа кодирования : VirtualDubMod 1.5.10.3 | www.virtualdub-fr.org || (build 2550/release)
Библиотека кодирования : VirtualDubMod build 2550/release
Видео
Идентификатор : 0
Формат : MPEG-4 Visual
Профиль формата : Advanced Simple@L5
Параметр BVOP формата : 2
Параметр QPel формата : Нет
Параметр GMC формата : Без точки перехода
Параметр матрицы формата : Выборочная
Идентификатор кодека : XVID
Идентификатор кодека/Подсказка : XviD
Продолжительность : 1 ч. 51 м.
Битрейт : 1473 Кбит/сек
Ширина : 720 пикселей
Высота : 304 пикселя
Соотношение сторон : 2,35:1
Частота кадров : 24,000 кадра/сек
Цветовое пространство : YUV
Субдискретизация насыщенности : 4:2:0
Битовая глубина : 8 бит
Тип развёртки : Прогрессивная
Метод сжатия : С потерями
Бит/(Пиксели*Кадры) : 0.280
Размер потока : 1,15 Гбайт (79%)
Библиотека кодирования : XviD 73
Аудио
Идентификатор : 1
Формат : AC-3
Формат/Информация : Audio Coding 3
Расширение режима : CM (complete main)
Параметр Endianness формата : Big
Идентификатор кодека : 2000
Продолжительность : 1 ч. 51 м.
Вид битрейта : Постоянный
Битрейт : 384 Кбит/сек
Каналы : 6 каналов
Расположение каналов : Front: L C R, Side: L R, LFE
Частота : 48,0 КГц
Частота кадров : 31,250 кадров/сек (1536 spf)
Метод сжатия : С потерями
Размер потока : 306 Мбайт (21%)
Выравнивание : Разделение по промежуткам
Продолжительность промежутка : 42 мс. (1,00 видеокадр)
Время предзагрузки промежутка : 500 мс.

Скриншот c названием фильма

Скриншоты

Профиль [ЛС]
Показать сообщения:    

Текущее время: 06-Апр 04:38

Часовой пояс: UTC ± 0



Вы не можете начинать темы
Вы не можете отвечать на сообщения
Вы не можете редактировать свои сообщения
Вы не можете удалять свои сообщения
Вы не можете голосовать в опросах
Вы не можете прикреплять файлы к сообщениям
Вы не можете скачивать файлы