MAGNAT ®

Пол:
Мужской
Стаж:
1 год
Сообщений:
4495

Невероятный мир глазами Энцо / The Art of Racing in the Rain- Год выпуска: 2019
Страна: США
Студия: Fox 2000 Pictures, Original Film, Shifting Gears Productions
Жанр: драма, мелодрама, комедия, спорт
Продолжительность: 01:48:49
Перевод: Профессиональный (дублированный)
Субтитры: русские (форсированные)-Режиссер: Саймон Кёртис / Simon Curtis-В ролях: Кевин Костнер, Майло Вентимилья, Аманда Сайфред, Мартин Донован, Гэри Коул, Кэти Бэйкер, Ал Сапиенца, Лили Додсворт-Эванс, Райан Кира Армстронг, Андрес Джозеф, Карен Холнесс.-Описание: Для собаки по кличке Энцо жизнь — это гонка. Не важно, как ты ее проходишь — за рулем автомобиля или на четырех лапах, все равно тебя ждут крутые виражи, ямы-западни, опасные взлеты и падения. Они выбивают с трека даже самых сильных — это начинающий гонщик Дэнни и его пес Энцо знают наверняка. Каждому из них предстоит своя гонка, но оба понимают: победить не значит обогнать соперников. Победить — значит вернуться после поражения на трассу и пройти ее до самого финиша, какой бы скользкой ни была дорога.-Качество видео: HDRip
Формат видео: AVI | Sample
Видео: 624x336 (1.85:1), 23.976 fps, XviD build 73 ~828 kbps avg, 0.165 bit/pixel
Аудио: 48 kHz, MPEG Layer 3, 2 ch, ~128.00 kbps avg | RUS

Инфо

Format : AVI
Format/Info : Audio Video Interleave
File size : 749 MiB
Duration : 1 h 48 min
Overall bit rate : 962 kb/s
Video
ID : 0
Format : MPEG-4 Visual
Format profile : Advanced Simple@L5
Format settings : BVOP1 / Custom Matrix
Format settings, BVOP : 1
Format settings, QPel : No
Format settings, GMC : No warppoints
Format settings, Matrix : Custom
Codec ID : XVID
Codec ID/Hint : XviD
Duration : 1 h 48 min
Bit rate : 828 kb/s
Width : 624 pixels
Height : 336 pixels
Display aspect ratio : 1.85:1
Frame rate : 23.976 (24000/1001) FPS
Color space : YUV
Chroma subsampling : 4:2:0
Bit depth : 8 bits
Scan type : Progressive
Compression mode : Lossy
Bits/(Pixel*Frame) : 0.165
Stream size : 645 MiB (86%)
Writing library : XviD 73
Audio
ID : 1
Format : MPEG Audio
Format version : Version 1
Format profile : Layer 3
Codec ID : 55
Codec ID/Hint : MP3
Duration : 1 h 48 min
Bit rate mode : Constant
Bit rate : 128 kb/s
Channel(s) : 2 channels
Sampling rate : 48.0 kHz
Frame rate : 41.667 FPS (1152 SPF)
Compression mode : Lossy
Stream size : 99.6 MiB (13%)
Alignment : Aligned on interleaves
Interleave, duration : 167 ms (4.00 video frames)
Interleave, preload duratio : 216 ms
Writing library : LAME3.99r
Encoding settings : -m s -V 4 -q 2 -lowpass 17 -b 128
Профиль [ЛС]
Показать сообщения:    

Текущее время: 06-Апр 05:02

Часовой пояс: UTC ± 0



Вы не можете начинать темы
Вы не можете отвечать на сообщения
Вы не можете редактировать свои сообщения
Вы не можете удалять свои сообщения
Вы не можете голосовать в опросах
Вы не можете прикреплять файлы к сообщениям
Вы не можете скачивать файлы