BOSS ®

Пол:
Мужской
Стаж:
14 дней
Сообщений:
38

Оригинальное название: В шаге от рая
Год выпуска: 2020
Жанр: Мелодрама, драма
Выпущено: Россия, «Медиаслово»
Режиссер: Евгений Семенов
В ролях: Мария Миронова, Ярослав Бойко, Игорь Бочкин, Анна Легчилова, Ольга Павловец, Надежда Маркина, Олег Чугунов, Илья Рябов, Иван Киренков, Светлана Новицкая
О фильме: Это была обычная семья. Не лучше и не хуже других. Они были счастливы, но не понимали этого. В неожиданном крупном лотерейном выигрыше увидели шанс стать такими, каким хотели быть в глазах окружающих — красивыми, успешными, желанными, близкими друзьями, идеальными вторыми половинами. Деньги решили их внешние проблемы, но внутри семьи начался кромешный ад — а ведь им казалось, что они всего лишь в шаге от рая.

Качество: WEBRip
Видео: XviD build 73, 720x400 (16:9), 25.000 fps, ~ 1550 Kbps (~ 0.215 bit/pixel)
Аудио: 44.1 kHz, MP3, 2/0 ch, 192 kbps
Продолжительность: 16 x ~ 00:50:00
Перевод: Не требуется [Русский]
Cубтитры: нет

Скриншоты


MediaInfo

General
Complete name : D:RazdachiV.Shage.Ot.Raja.2020.WEBRip.GeneralFilme01.V.Shage.Ot.Raja.avi
Format : AVI
Format/Info : Audio Video Interleave
File size : 625 MiB
Duration : 49 min 53 s
Overall bit rate : 1 752 kb/s
Writing application : VirtualDubMod 1.5.10.3 | www.virtualdub-fr.org || (build 2550/release)
Writing library : VirtualDubMod build 2550/release
Video
ID : 0
Format : MPEG-4 Visual
Format profile : Advanced Simple@L5
Format settings : BVOP1 / Custom Matrix
Format settings, BVOP : 1
Format settings, QPel : No
Format settings, GMC : No warppoints
Format settings, Matrix : Custom
Codec ID : XVID
Codec ID/Hint : XviD
Duration : 49 min 53 s
Bit rate : 1 550 kb/s
Width : 720 pixels
Height : 400 pixels
Display aspect ratio : 16:9
Frame rate : 25.000 FPS
Color space : YUV
Chroma subsampling : 4:2:0
Bit depth : 8 bits
Scan type : Progressive
Compression mode : Lossy
Bits/(Pixel*Frame) : 0.215
Stream size : 553 MiB (88%)
Writing library : XviD 73
Audio
ID : 1
Format : MPEG Audio
Format version : Version 1
Format profile : Layer 3
Codec ID : 55
Codec ID/Hint : MP3
Duration : 49 min 53 s
Bit rate mode : Constant
Bit rate : 192 kb/s
Channel(s) : 2 channels
Sampling rate : 44.1 kHz
Frame rate : 38.281 FPS (1152 SPF)
Compression mode : Lossy
Stream size : 68.5 MiB (11%)
Alignment : Split across interleaves
Interleave, duration : 40 ms (1.00 video frame)
Interleave, preload duratio : 500 ms
Writing library : LAME3.99r
Encoding settings : -m s -V 4 -q 2 -lowpass 18.6 -b 192
Профиль [ЛС]
Показать сообщения:    

Текущее время: 06-Апр 05:14

Часовой пояс: UTC ± 0



Вы не можете начинать темы
Вы не можете отвечать на сообщения
Вы не можете редактировать свои сообщения
Вы не можете удалять свои сообщения
Вы не можете голосовать в опросах
Вы не можете прикреплять файлы к сообщениям
Вы не можете скачивать файлы