Статистика раздачи
Размер:  14,19 GB   |    Зарегистрирован:  7 дней   |    Скачан:  0 раз
DL-List: Нет

Полного источника не было: Никогда

 
     
 
 

MAGNAT ®

Пол:
Мужской
Стаж:
1 год 2 месяца
Сообщений:
7620

Бесстрашные / Deliler
Страна: Турция
Жанр: История, военный
Год выпуска: 2018
Продолжительность: 02:00:30
Перевод: Профессиональный (многоголосый закадровый) iTunes
Субтитры: Английские
Оригинальная аудиодорожка: Турецкий
Режиссер: Осман Кая / Osman Kaya
В ролях: Джем Учан, Эркан Петеккая, Нур Феттахоглу, Йеткин Дикинджилер, Гюльшах Шахин, Исмаил Филиз, Берат Эфэ Парлар, Камиль Гюлер
Описание: Середина XV века. Расцвет Османской империи. Преданный империи Влад Цепеш одобрен султаном Фатихом Мехмедом II на правление в вассальской Валахии. Но вскоре молодой господарь начал жестоко расправляться с турками и вытеснять их со своих земель, а отправленного разгневанным султаном гонца возвращает с колом в голове. Фатих создал специальный отряд, прозванный отрядом бесстрашных, во главе которого было семеро лучших воинов империи. Османские воины-дели в звериных шкурах с крыльями на каркасе за спиной всегда отличались суровым нравом. Они выполнят любой приказ султана, а сейчас их миссия – уничтожить правителя
Тип релиза: BDRemux 1080p
Контейнер: MKV
Видео: MPEG-4 AVC, 1080p, 1920:1080 (16:9), 14391 kbps, 23.976 fps
Аудио 1: АС3, 6 ch, 48 kHz, 384 kbps, 16 bits Русский MVO iTunes
Аудио 2: DTS-HD MA, 6 ch, 48 kHz, 2081 kbps, 16-bit (DTS Core 6 ch, 48 kHz, 1509 kbps, 16-bit) Турецкий
Формат субтитров: SRT

MediaInfo

General
Unique ID : 248260614126590537326582690873221622292 (0xBAC5414CA667FF0F999CE63AF534AA14)
Complete name : G:\Deliler.2018.REMUX.mkv
Format : Matroska
Format version : Version 4
File size : 14.2 GiB
Duration : 2 h 0 min
Overall bit rate mode : Variable
Overall bit rate : 16.9 Mb/s
Encoded date : UTC 2020-05-18 09:05:58
Writing application : mkvmerge v20.0.0 ('I Am The Sun') 64-bit
Writing library : libebml v1.3.5 + libmatroska v1.4.8
Video
ID : 1
Format : AVC
Format/Info : Advanced Video Codec
Format profile : High@L4.1
Format settings : CABAC / 3 Ref Frames
Format settings, CABAC : Yes
Format settings, Reference frames : 3 frames
Format settings, GOP : M=3, N=12
Codec ID : V_MPEG4/ISO/AVC
Duration : 2 h 0 min
Bit rate mode : Variable
Bit rate : 14.4 Mb/s
Maximum bit rate : 32.0 Mb/s
Width : 1 920 pixels
Height : 1 080 pixels
Display aspect ratio : 16:9
Frame rate mode : Constant
Frame rate : 23.976 (24000/1001) FPS
Standard : NTSC
Color space : YUV
Chroma subsampling : 4:2:0
Bit depth : 8 bits
Scan type : Progressive
Bits/(Pixel*Frame) : 0.289
Stream size : 12.1 GiB (85%)
Language : Turkish
Default : Yes
Forced : No
Color range : Limited
Color primaries : BT.709
Transfer characteristics : BT.709
Matrix coefficients : BT.709
Audio #1
ID : 2
Format : AC-3
Format/Info : Audio Coding 3
Commercial name : Dolby Digital
Codec ID : A_AC3
Duration : 2 h 0 min
Bit rate mode : Constant
Bit rate : 384 kb/s
Channel(s) : 6 channels
Channel layout : L R C LFE Ls Rs
Sampling rate : 48.0 kHz
Frame rate : 31.250 FPS (1536 SPF)
Compression mode : Lossy
Stream size : 331 MiB (2%)
Title : MVO iTunes
Language : Russian
Service kind : Complete Main
Default : Yes
Forced : No
Audio #2
ID : 3
Format : DTS XLL
Format/Info : Digital Theater Systems
Commercial name : DTS-HD Master Audio
Codec ID : A_DTS
Duration : 2 h 0 min
Bit rate mode : Variable
Bit rate : 2 081 kb/s
Channel(s) : 6 channels
Channel layout : C L R Ls Rs LFE
Sampling rate : 48.0 kHz
Frame rate : 93.750 FPS (512 SPF)
Bit depth : 16 bits
Compression mode : Lossless
Stream size : 1.75 GiB (12%)
Language : Turkish
Default : No
Forced : No
Text
ID : 4
Format : UTF-8
Codec ID : S_TEXT/UTF8
Codec ID/Info : UTF-8 Plain Text
Duration : 1 h 56 min
Bit rate : 32 b/s
Count of elements : 948
Stream size : 27.6 KiB (0%)
Language : English
Default : No
Forced : No
Menu
00:00:00.000 : en:Chapter 1
00:09:30.653 : en:Chapter 2
00:20:59.383 : en:Chapter 3
00:29:06.870 : en:Chapter 4
00:40:15.663 : en:Chapter 5
00:52:26.393 : en:Chapter 6
00:59:58.011 : en:Chapter 7
01:10:12.625 : en:Chapter 8
01:18:48.265 : en:Chapter 9
01:29:34.744 : en:Chapter 10
01:40:07.251 : en:Chapter 11
01:48:03.686 : en:Chapter 12
[opentorrent.pro].t18965.torrent 
Торрент: Зарегистрирован [ 2020-05-22 17:59 ] · DE2CA5474553D8BDBBF810693835927562197190

Скачать .torrent

Скачать

71 KB

Статус: проверено
Скачан: 0 раз
Размер: 14,19 GB  ·  Тип торрента
terms.php
Профиль [ЛС]
Показать сообщения:    

Текущее время: 30-Май 01:55

Часовой пояс: UTC ± 0



Вы не можете начинать темы
Вы не можете отвечать на сообщения
Вы не можете редактировать свои сообщения
Вы не можете удалять свои сообщения
Вы не можете голосовать в опросах
Вы не можете прикреплять файлы к сообщениям
Вы можете скачивать файлы