Статистика раздачи
Размер:  12,58 GB   |    Зарегистрирован:  7 дней   |    Скачан:  0 раз
DL-List: Нет

Полного источника не было: Никогда

 
     
 
 

MAGNAT ®

Пол:
Мужской
Стаж:
1 год 2 месяца
Сообщений:
7620

За бортом / Overboard
Страна: США
Жанр: комедия
Год выпуска: 1987
Продолжительность: 01:52:10
Перевод 1: Профессиональный (многоголосый закадровый) R5
Перевод 2: Профессиональный (многоголосый закадровый) ОРТ
Перевод 3: Профессиональный (многоголосый закадровый) НТВ
Перевод 4: Профессиональный (многоголосый закадровый) Intra
Перевод 5: Профессиональный (двухголосый закадровый) Союз
Перевод 6: Профессиональный (двухголосый закадровый) Сони
Перевод 7: Авторский (одноголосый закадровый) Михалёв
Перевод 8: Авторский (одноголосый закадровый) Махонько
Перевод 9: Одноголосый закадровый неизвестный К9
Субтитры: русские, английские
Оригинальная аудиодорожка: английский
Режиссер: Гэрри Маршалл / Garry Marshall
В ролях: Голди Хоун, Курт Расселл, Эдвард Херрманн, Кэтрин Хелмонд, Майкл Дж. Хэгерти, Родди МакДауэлл, Джэред Раштон, Джефри Уайзмен, Брайан Прайс, Джэми Вайлд, Фрэнк Кампанелла, Генри Алан Миллер
Описание: Джоанна Стейтон — властная, заносчивая и несговорчивая жена самоуверенного владельца яхты. Когда их посудина останавливается для ремонта в небольшом городке, сварливая и взбалмошная Джоанна нанимает плотника Дина Проффитта, чтобы тот смастерил ей новый шкафчик. Но вместо платы за работу Дин получает от ворот поворот — ведь Джоанна никогда ничем не бывает довольна. Но на этот раз ее фирменные выкрутасы заканчиваются тем, что она падает за борт и напрочь теряет память. А Дин тем временем осуществляет бесподобный план мести: он забирает Джоанну к себе, переименовывает ее в Энни и объявляет своей женой и матерью своих четверых непослушных сыновей.
Тип релиза: BDRip 720p
Контейнер: MKV
Видео: AVC, 1280x694 (1,85:1), 23,976 fps, ~11,5 Mbps
Аудио 1: AC3, 48 kHz, 2.0 ch stereo, 192 kbps - MVO R5
Аудио 2: AC3, 48 kHz, 2.0 ch mono, 192 kbps - MVO "Селена Интернэшнл" по заказу "ОРТ"
Аудио 3: AC3, 48 kHz, 2.0 ch mono, 192 kbps - MVO "НТВ+" по заказу "НТВ"
Аудио 4: AC3, 48 kHz, 2.0 ch mono, 192 kbps - MVO "Intra Communications" / "ViP Megahit" / "Disney Channel" / "Домашний"
Аудио 5: AC3, 48 kHz, 2.0 ch stereo, 192 kbps - DVO "Союз Видео"
Аудио 6: AC3, 48 kHz, 2.0 ch stereo, 192 kbps - DVO "Sony Channel"
Аудио 7: DTS, 48 kHz, 2.0 ch stereo, 1509 kbps - AVO Алексей Михалёв
Аудио 8: AC3, 48 kHz, 2.0 ch mono, 192 kbps - AVO Виктор Махонько
Аудио 9: AC3, 48 kHz, 2.0 ch mono, 192 kbps - VO неизвестный "К9"
Аудио 10: DTS, 48 kHz, 2.0 ch stereo, 1509 kbps - english
Формат субтитров: softsub (SRT)

MediaInfo

Общее
Уникальный идентификатор : 55433493036180580212319353623806627347 (0x29B41A37EFF5D8A399A6079DDE0A4E13)
Полное имя : F:\Overboard [1987 BDRip 720p].mkv
Формат : Matroska
Версия формата : Version 4
Размер файла : 12,6 Гбайт
Продолжительность : 1 ч. 52 м.
Общий поток : 16,1 Мбит/сек
Дата кодирования : UTC 2020-05-18 05:44:29
Программа кодирования : mkvmerge v19.0.0 ('Brave Captain') 32-bit
Библиотека кодирования : libebml v1.3.5 + libmatroska v1.4.8
Видео
Идентификатор : 1
Формат : AVC
Формат/Информация : Advanced Video Codec
Профиль формата : High@L4.1
Настройки формата : CABAC / 9 Ref Frames
Параметр CABAC формата : Да
Параметр RefFrames формата : 9 кадров
Идентификатор кодека : V_MPEG4/ISO/AVC
Продолжительность : 1 ч. 52 м.
Битрейт : 11,5 Мбит/сек
Ширина : 1280 пикселей
Высота : 694 пикселя
Соотношение сторон : 1,85:1
Режим частоты кадров : Постоянный
Частота кадров : 23,976 (24000/1001) кадра/сек
Цветовое пространство : YUV
Субдискретизация насыщенности : 4:2:0
Битовая глубина : 8 бит
Тип развёртки : Прогрессивная
Бит/(Пиксели*Кадры) : 0.540
Размер потока : 9,01 Гбайт (72%)
Библиотека кодирования : x264 core 148 r2744+55 950084e t_mod_Custom [8-bit@all X86_64]
Настройки программы : cabac=1 / ref=9 / deblock=1:-3:-3 / analyse=0x3:0x133 / me=umh / subme=10 / psy=1 / fade_compensate=0.00 / psy_rd=1.05:0.00 / mixed_ref=1 / me_range=48 / chroma_me=1 / trellis=2 / 8x8dct=1 / cqm=0 / deadzone=21,11 / fast_pskip=0 / chroma_qp_offset=-2 / threads=12 / lookahead_threads=3 / sliced_threads=0 / nr=0 / decimate=0 / interlaced=0 / bluray_compat=0 / constrained_intra=0 / fgo=0 / bframes=12 / b_pyramid=2 / b_adapt=2 / b_bias=0 / direct=3 / weightb=1 / open_gop=0 / weightp=2 / keyint=250 / keyint_min=23 / scenecut=40 / intra_refresh=0 / rc=2pass / mbtree=0 / bitrate=11500 / ratetol=1.0 / qcomp=0.65 / qpmin=0:0:0 / qpmax=69:69:69 / qpstep=4 / cplxblur=20.0 / qblur=0.5 / ip_ratio=1.20 / pb_ratio=1.10 / aq=3:0.65 / aq-sensitivity=10.00 / aq-factor=1.00:1.00:1.00 / aq2=1:0.60 / aq2-sensitivity=15.00 / aq2-factor=1.00:1.00:1.00 / aq3=0
Язык : English
Default : Да
Forced : Нет
Аудио #1
Идентификатор : 2
Формат : AC-3
Формат/Информация : Audio Coding 3
Коммерческое название : Dolby Digital
Идентификатор кодека : A_AC3
Продолжительность : 1 ч. 52 м.
Вид битрейта : Постоянный
Битрейт : 192 Кбит/сек
Каналы : 2 канала
ChannelLayout : L R
Частота : 48,0 КГц
Частота кадров : 31,250 кадров/сек (1536 SPF)
Битовая глубина : 16 бит
Метод сжатия : С потерями
Размер потока : 154 Мбайт (1%)
Заголовок : MVO R5
Язык : Russian
ServiceKind/String : Complete Main
Default : Да
Forced : Нет
Аудио #2
Идентификатор : 3
Формат : AC-3
Формат/Информация : Audio Coding 3
Коммерческое название : Dolby Digital
Идентификатор кодека : A_AC3
Продолжительность : 1 ч. 52 м.
Вид битрейта : Постоянный
Битрейт : 192 Кбит/сек
Каналы : 2 канала
ChannelLayout : L R
Частота : 48,0 КГц
Частота кадров : 31,250 кадров/сек (1536 SPF)
Битовая глубина : 16 бит
Метод сжатия : С потерями
Размер потока : 154 Мбайт (1%)
Заголовок : MVO ORT
Язык : Russian
ServiceKind/String : Complete Main
Default : Нет
Forced : Нет
Аудио #3
Идентификатор : 4
Формат : AC-3
Формат/Информация : Audio Coding 3
Коммерческое название : Dolby Digital
Идентификатор кодека : A_AC3
Продолжительность : 1 ч. 52 м.
Вид битрейта : Постоянный
Битрейт : 192 Кбит/сек
Каналы : 2 канала
ChannelLayout : L R
Частота : 48,0 КГц
Частота кадров : 31,250 кадров/сек (1536 SPF)
Битовая глубина : 16 бит
Метод сжатия : С потерями
Размер потока : 154 Мбайт (1%)
Заголовок : MVO NTV
Язык : Russian
ServiceKind/String : Complete Main
Default : Нет
Forced : Нет
Аудио #4
Идентификатор : 5
Формат : AC-3
Формат/Информация : Audio Coding 3
Коммерческое название : Dolby Digital
Идентификатор кодека : A_AC3
Продолжительность : 1 ч. 52 м.
Вид битрейта : Постоянный
Битрейт : 192 Кбит/сек
Каналы : 2 канала
ChannelLayout : L R
Частота : 48,0 КГц
Частота кадров : 31,250 кадров/сек (1536 SPF)
Битовая глубина : 16 бит
Метод сжатия : С потерями
Размер потока : 154 Мбайт (1%)
Заголовок : MVO Intra
Язык : Russian
ServiceKind/String : Complete Main
Default : Нет
Forced : Нет
Аудио #5
Идентификатор : 6
Формат : AC-3
Формат/Информация : Audio Coding 3
Коммерческое название : Dolby Digital
Идентификатор кодека : A_AC3
Продолжительность : 1 ч. 52 м.
Вид битрейта : Постоянный
Битрейт : 192 Кбит/сек
Каналы : 2 канала
ChannelLayout : L R
Частота : 48,0 КГц
Частота кадров : 31,250 кадров/сек (1536 SPF)
Битовая глубина : 16 бит
Метод сжатия : С потерями
Размер потока : 154 Мбайт (1%)
Заголовок : DVO Soyuz
Язык : Russian
ServiceKind/String : Complete Main
Default : Нет
Forced : Нет
Аудио #6
Идентификатор : 7
Формат : AC-3
Формат/Информация : Audio Coding 3
Коммерческое название : Dolby Digital
Идентификатор кодека : A_AC3
Продолжительность : 1 ч. 52 м.
Вид битрейта : Постоянный
Битрейт : 192 Кбит/сек
Каналы : 2 канала
ChannelLayout : L R
Частота : 48,0 КГц
Частота кадров : 31,250 кадров/сек (1536 SPF)
Битовая глубина : 16 бит
Метод сжатия : С потерями
Размер потока : 154 Мбайт (1%)
Заголовок : DVO Sony
Язык : Russian
ServiceKind/String : Complete Main
Default : Нет
Forced : Нет
Аудио #7
Идентификатор : 8
Формат : DTS
Формат/Информация : Digital Theater Systems
Идентификатор кодека : A_DTS
Продолжительность : 1 ч. 52 м.
Вид битрейта : Постоянный
Битрейт : 1509 Кбит/сек
Каналы : 2 канала
ChannelLayout : L R
Частота : 48,0 КГц
Частота кадров : 93,750 кадра/сек (512 SPF)
Битовая глубина : 24 бит
Метод сжатия : С потерями
Размер потока : 1,18 Гбайт (9%)
Заголовок : AVO Mihalev
Язык : Russian
Default : Нет
Forced : Нет
Аудио #8
Идентификатор : 9
Формат : AC-3
Формат/Информация : Audio Coding 3
Коммерческое название : Dolby Digital
Идентификатор кодека : A_AC3
Продолжительность : 1 ч. 52 м.
Вид битрейта : Постоянный
Битрейт : 192 Кбит/сек
Каналы : 2 канала
ChannelLayout : L R
Частота : 48,0 КГц
Частота кадров : 31,250 кадров/сек (1536 SPF)
Битовая глубина : 16 бит
Метод сжатия : С потерями
Размер потока : 154 Мбайт (1%)
Заголовок : AVO Mahonko
Язык : Russian
ServiceKind/String : Complete Main
Default : Нет
Forced : Нет
Аудио #9
Идентификатор : 10
Формат : AC-3
Формат/Информация : Audio Coding 3
Коммерческое название : Dolby Digital
Идентификатор кодека : A_AC3
Продолжительность : 1 ч. 52 м.
Вид битрейта : Постоянный
Битрейт : 192 Кбит/сек
Каналы : 2 канала
ChannelLayout : L R
Частота : 48,0 КГц
Частота кадров : 31,250 кадров/сек (1536 SPF)
Битовая глубина : 16 бит
Метод сжатия : С потерями
Размер потока : 154 Мбайт (1%)
Заголовок : VO K9
Язык : Russian
ServiceKind/String : Complete Main
Default : Нет
Forced : Нет
Аудио #10
Идентификатор : 11
Формат : DTS
Формат/Информация : Digital Theater Systems
Идентификатор кодека : A_DTS
Продолжительность : 1 ч. 52 м.
Вид битрейта : Постоянный
Битрейт : 1509 Кбит/сек
Каналы : 2 канала
ChannelLayout : L R
Частота : 48,0 КГц
Частота кадров : 93,750 кадра/сек (512 SPF)
Битовая глубина : 24 бит
Метод сжатия : С потерями
Размер потока : 1,18 Гбайт (9%)
Язык : English
Default : Нет
Forced : Нет
Текст #1
Идентификатор : 12
Формат : UTF-8
Идентификатор кодека : S_TEXT/UTF8
Идентификатор кодека/Информация : UTF-8 Plain Text
Продолжительность : 1 ч. 48 м.
Битрейт : 97 бит/сек
ElementCount : 1248
Размер потока : 77,4 Кбайт (0%)
Язык : Russian
Default : Нет
Forced : Нет
Текст #2
Идентификатор : 13
Формат : UTF-8
Идентификатор кодека : S_TEXT/UTF8
Идентификатор кодека/Информация : UTF-8 Plain Text
Продолжительность : 1 ч. 48 м.
Битрейт : 72 бит/сек
ElementCount : 1471
Размер потока : 57,8 Кбайт (0%)
Язык : English
Default : Нет
Forced : Нет
Меню
00:00:00.000 : en:Logo/Main Title
00:03:27.999 : en:Meeting Joanna
00:08:07.236 : en:Dean Gets Fired
00:12:45.848 : en:Of Mummies & Monsters
00:15:35.684 : en:Overboard...
00:17:37.264 : en:...And Ill-Mannered
00:21:05.138 : en:"The Bitch!"...
00:22:50.160 : en:...And The Pitch
00:26:45.937 : en:"I Just Ate A Bug!"
00:28:22.867 : en:Meeting The Monsters
00:33:15.451 : en:Burn Victim
00:35:51.941 : en:"I'm A Short, Fat Slut"
00:38:28.806 : en:The Dream
00:41:42.917 : en:Scores Of Chores
00:45:27.391 : en:Finding A Memory
00:47:31.807 : en:Photographic Evidence
00:49:44.231 : en:Payback Is Swell
00:54:49.577 : en:"Anal Compulsive Hun"
00:58:58.368 : en:Parent-To-Parent Talk
01:04:32.827 : en:French & Fertilizer
01:08:01.994 : en:The Wonders Of Golf
01:10:20.883 : en:Dean's Confession
01:13:43.168 : en:Arturo & Katarina
01:19:13.790 : en:A Snag In The Wool
01:24:26.686 : en:The Grand Opening
01:26:17.338 : en:Grant Returns
01:30:00.645 : en:Leaving Elk Cove
01:33:16.257 : en:Almost Fully Recovered
01:37:15.454 : en:Andrew's Insight
01:41:06.894 : en:"You Left Me There"
01:43:24.740 : en:Arturo & Katarina II
01:49:41.324 : en:End Credits

Скриншоты

[opentorrent.pro].t18967.torrent 
Торрент: Зарегистрирован [ 2020-05-22 18:00 ] · 03F5BC5C31E25E6C80D8373AA6E8994EDA2D4237

Скачать .torrent

Скачать

32 KB

Статус: проверено
Скачан: 0 раз
Размер: 12,58 GB  ·  Тип торрента
terms.php
Профиль [ЛС]
Показать сообщения:    

Текущее время: 30-Май 03:12

Часовой пояс: UTC ± 0



Вы не можете начинать темы
Вы не можете отвечать на сообщения
Вы не можете редактировать свои сообщения
Вы не можете удалять свои сообщения
Вы не можете голосовать в опросах
Вы не можете прикреплять файлы к сообщениям
Вы можете скачивать файлы