Статистика раздачи
Размер:  6,3 GB   |    Зарегистрирован:  7 дней   |    Скачан:  0 раз
DL-List: Нет

Полного источника не было: Никогда

 
     
 
 

MAGNAT ®

Пол:
Мужской
Стаж:
1 год 2 месяца
Сообщений:
7620

Джордж из джунглей
George of the Jungle

«Он недавно спустился с дерева... на улицы Сан-Франциско»
- Год выпуска: 1997
Страна: США
Жанр: комедия, приключения, семейный
Продолжительность: 01:31:45
Перевод 1: Профессиональный (многоголосый закадровый) - Позитив
Перевод 2: Профессиональный (многоголосый закадровый) - СТС/ОРТ
Перевод 3: Профессиональный (многоголосый закадровый) - Видеосервис
Перевод 4: Авторский (одноголосый закадровый) - Сергей Визгунов
Субтитры: Rus (Full), Eng (Full, SDH)
Оригинальная аудиодорожка: английская-Режиссер: Сэм Уайзман / Sam Weisman
Продюсер: Джон Эвнет, Дэвид Хоберман, Джордан Кернер
Сценарий: Дэна Олсен, Одри Уэллс, Джей Уорд-В ролях:
Брендан Фрейзер | Brendan Fraser
Лесли Манн | Leslie Mann
Томас Хейден Чёрч, Ричард Раундтри, Грегг Краттуэлл, Абрахам Бенруби, Холланд Тейлор, Келли Миллер, Джон Беннет Перри, Джон Клиз-Описание:Джордж вырос в самом сердце африканских джунглей. Среди горилл. Они научили своего воспитанника прыгать по деревьям… но не показали, как приземляться. Его лучшие друзья — дикие животные превращаются в домашних. Слон — в сторожевую собаку, лев — в ленивого кота. Даже обезьяна с перепугу начала разговаривать.
Джордж наслаждается своей привольной жизнью, пока не встречает красавицу Урсулу, которая не только очаровывает его, но и увозит в Сан — Франциско. Большому городу не хватало только… короля джунглей.
-Формат: MKV
Видео: AVC 8232 kb/s 1280 x 692 (1.850) at 23.976 fps
Аудио #1: 48 kHz, AC3, 5.1, ~448.00 kbps avg | Многоголосый закадровый - Позитив|
Аудио #2: 48 kHz, AAC, 2.0, ~160.00 kbps avg | Многоголосый закадровый - iTunes, СТС/ОРТ|
Аудио #3: 48 kHz, AC3, 2.0, ~192.00 kbps avg | Многоголосый закадровый - Видеосервис|
Аудио #4: AC-3 192 kb/s 2 channels, 48.0 kHz | Авторский (одноголосый закадровый) - Сергей Визгунов
Аудио #5: AC-3 640 kb/s 6 channels, 48.0 kHz | Оригинал
Субтитры: SoftSub (SRT)-

MediaInfo | Log

Log

x264 [info]: frame I:1378 Avg QP:16.93 size:126710
x264 [info]: frame P:29978 Avg QP:18.03 size: 68142
x264 [info]: frame B:100619 Avg QP:20.01 size: 34256
x264 [info]: consecutive B-frames: 2.8% 4.0% 9.0% 22.4% 15.3% 34.7% 5.5% 2.4% 1.6% 1.2% 1.0%
x264 [info]: mb I I16..4: 2.4% 86.4% 11.2%
x264 [info]: mb P I16..4: 0.5% 35.3% 2.5% P16..4: 21.1% 24.3% 9.8% 1.0% 0.1% skip: 5.4%
x264 [info]: mb B I16..4: 0.2% 6.8% 0.5% B16..8: 32.5% 24.8% 5.1% direct:13.2% skip:17.1% L0:44.0% L1:35.2% BI:20.8%
x264 [info]: 8x8 transform intra:91.4% inter:65.8%
x264 [info]: direct mvs spatial:99.9% temporal:0.1%
x264 [info]: coded y,uvDC,uvAC intra: 94.9% 96.0% 87.8% inter: 51.4% 59.2% 32.9%
x264 [info]: i16 v,h,dc,p: 32% 14% 5% 48%
x264 [info]: i8 v,h,dc,ddl,ddr,vr,hd,vl,hu: 10% 7% 7% 10% 14% 13% 12% 13% 14%
x264 [info]: i4 v,h,dc,ddl,ddr,vr,hd,vl,hu: 35% 5% 4% 6% 12% 12% 10% 8% 8%
x264 [info]: i8c dc,h,v,p: 53% 16% 14% 17%
x264 [info]: Weighted P-Frames: Y:7.4% UV:4.9%
x264 [info]: ref P L0: 43.3% 13.7% 19.4% 6.9% 5.9% 3.5% 3.4% 1.8% 2.0% 0.2% 0.0%
x264 [info]: ref B L0: 70.7% 12.9% 6.6% 3.7% 2.6% 2.0% 1.2% 0.3%
x264 [info]: ref B L1: 94.1% 5.9%
x264 [info]: kb/s:8232.18
x264 [total]: encoded 131975 frames, 7.70 fps, 8232.18 kb/s
Format : Matroska
Format version : Version 4
File size : 6.30 GiB
Duration : 1 h 31 min
Overall bit rate : 9 818 kb/s
Movie name : George of the Jungle (1997).BDRip.720p.[rutracker.org]
Encoded date : UTC 2020-05-17 21:59:30
Writing application : mkvmerge v8.2.0 ('World of Adventure') 64bit
Writing library : libebml v1.3.1 + libmatroska v1.4.2
Video
ID : 1
Format : AVC
Format/Info : Advanced Video Codec
Format profile : High@L4.1
Format settings : CABAC / 9 Ref Frames
Format settings, CABAC : Yes
Format settings, Reference frames : 9 frames
Codec ID : V_MPEG4/ISO/AVC
Duration : 1 h 31 min
Bit rate : 8 232 kb/s
Width : 1 280 pixels
Height : 692 pixels
Display aspect ratio : 1.85:1
Frame rate mode : Constant
Frame rate : 23.976 (24000/1001) FPS
Color space : YUV
Chroma subsampling : 4:2:0
Bit depth : 8 bits
Scan type : Progressive
Bits/(Pixel*Frame) : 0.388
Stream size : 5.28 GiB (84%)
Title : George of the Jungle (1997).BDRip.720p.[rutracker.org]
Writing library : x264 core 160 r3000 33f9e14
Encoding settings : cabac=1 / ref=9 / deblock=1:-3:-2 / analyse=0x3:0x133 / me=umh / subme=11 / psy=1 / psy_rd=1.00:0.05 / mixed_ref=1 / me_range=32 / chroma_me=1 / trellis=2 / 8x8dct=1 / cqm=0 / deadzone=21,11 / fast_pskip=0 / chroma_qp_offset=-3 / threads=12 / lookahead_threads=3 / sliced_threads=0 / nr=0 / decimate=1 / interlaced=0 / bluray_compat=0 / constrained_intra=0 / bframes=10 / b_pyramid=2 / b_adapt=2 / b_bias=0 / direct=3 / weightb=1 / open_gop=0 / weightp=2 / keyint=250 / keyint_min=23 / scenecut=40 / intra_refresh=0 / rc_lookahead=60 / rc=crf / mbtree=0 / crf=17.3 / qcomp=0.60 / qpmin=0 / qpmax=69 / qpstep=4 / vbv_maxrate=50000 / vbv_bufsize=62500 / crf_max=0.0 / nal_hrd=none / filler=0 / ip_ratio=1.40 / pb_ratio=1.30 / aq=3:0.90
Language : English
Default : Yes
Forced : No
Audio #1
ID : 2
Format : AC-3
Format/Info : Audio Coding 3
Commercial name : Dolby Digital
Codec ID : A_AC3
Duration : 1 h 31 min
Bit rate mode : Constant
Bit rate : 448 kb/s
Channel(s) : 6 channels
Channel layout : L R C LFE Ls Rs
Sampling rate : 48.0 kHz
Frame rate : 31.250 FPS (1536 SPF)
Bit depth : 16 bits
Compression mode : Lossy
Stream size : 294 MiB (5%)
Title : MVO [Позитив]
Language : Russian
Service kind : Complete Main
Default : Yes
Forced : No
Audio #2
ID : 3
Format : AAC LC
Format/Info : Advanced Audio Codec Low Complexity
Codec ID : A_AAC-2
Duration : 1 h 31 min
Bit rate : 123 kb/s
Channel(s) : 2 channels
Channel layout : L R
Sampling rate : 48.0 kHz
Frame rate : 46.875 FPS (1024 SPF)
Compression mode : Lossy
Stream size : 80.8 MiB (1%)
Title : MVO (iTunes, СТС/ОРТ)
Language : Russian
Default : No
Forced : No
Audio #3
ID : 4
Format : AC-3
Format/Info : Audio Coding 3
Commercial name : Dolby Digital
Codec ID : A_AC3
Duration : 1 h 31 min
Bit rate mode : Constant
Bit rate : 192 kb/s
Channel(s) : 2 channels
Channel layout : L R
Sampling rate : 48.0 kHz
Frame rate : 31.250 FPS (1536 SPF)
Bit depth : 16 bits
Compression mode : Lossy
Stream size : 126 MiB (2%)
Title : MVO [Видеосервис]
Language : Russian
Service kind : Complete Main
Default : No
Forced : No
Audio #4
ID : 5
Format : AC-3
Format/Info : Audio Coding 3
Commercial name : Dolby Digital
Codec ID : A_AC3
Duration : 1 h 31 min
Bit rate mode : Constant
Bit rate : 192 kb/s
Channel(s) : 2 channels
Channel layout : L R
Sampling rate : 48.0 kHz
Frame rate : 31.250 FPS (1536 SPF)
Bit depth : 16 bits
Compression mode : Lossy
Stream size : 126 MiB (2%)
Title : AVO (Сергей Визгунов)
Language : Russian
Service kind : Complete Main
Default : No
Forced : No
Audio #5
ID : 6
Format : AC-3
Format/Info : Audio Coding 3
Commercial name : Dolby Digital
Codec ID : A_AC3
Duration : 1 h 31 min
Bit rate mode : Constant
Bit rate : 640 kb/s
Channel(s) : 6 channels
Channel layout : L R C LFE Ls Rs
Sampling rate : 48.0 kHz
Frame rate : 31.250 FPS (1536 SPF)
Bit depth : 16 bits
Compression mode : Lossy
Stream size : 421 MiB (7%)
Title : Original
Language : English
Service kind : Complete Main
Default : No
Forced : No
Text #1
ID : 7
Format : UTF-8
Codec ID : S_TEXT/UTF8
Codec ID/Info : UTF-8 Plain Text
Duration : 1 h 27 min
Bit rate : 99 b/s
Count of elements : 1085
Stream size : 63.3 KiB (0%)
Title : Full
Language : Russian
Default : No
Forced : No
Text #2
ID : 8
Format : UTF-8
Codec ID : S_TEXT/UTF8
Codec ID/Info : UTF-8 Plain Text
Duration : 1 h 31 min
Bit rate : 65 b/s
Count of elements : 1212
Stream size : 43.7 KiB (0%)
Title : Full
Language : English
Default : No
Forced : No
Text #3
ID : 9
Format : UTF-8
Codec ID : S_TEXT/UTF8
Codec ID/Info : UTF-8 Plain Text
Duration : 1 h 31 min
Bit rate : 77 b/s
Count of elements : 1461
Stream size : 52.1 KiB (0%)
Title : SDH
Language : English
Default : No
Forced : No
Menu
00:00:00.000 : en:Chapter 01
00:00:26.068 : en:Chapter 02
00:04:59.341 : en:Chapter 03
00:11:05.999 : en:Chapter 04
00:20:03.911 : en:Chapter 05
00:23:23.527 : en:Chapter 06
00:28:38.759 : en:Chapter 07
00:29:47.119 : en:Chapter 08
00:34:26.648 : en:Chapter 09
00:43:10.338 : en:Chapter 10
00:45:29.060 : en:Chapter 11
00:50:02.833 : en:Chapter 12
00:51:28.752 : en:Chapter 13
00:55:18.857 : en:Chapter 14
00:56:54.703 : en:Chapter 15
01:05:03.566 : en:Chapter 16
01:15:46.208 : en:Chapter 17
01:22:07.214 : en:Chapter 18
01:25:06.351 : en:Chapter 19
-

Скриншоты



[opentorrent.pro].t18970.torrent 
Торрент: Зарегистрирован [ 2020-05-22 18:02 ] · 68D2174246CCB6DE24C42030A1760DED9D21B94B

Скачать .torrent

Скачать

16 KB

Статус: проверено
Скачан: 0 раз
Размер: 6,3 GB  ·  Тип торрента
terms.php
Профиль [ЛС]
Показать сообщения:    

Текущее время: 30-Май 02:09

Часовой пояс: UTC ± 0



Вы не можете начинать темы
Вы не можете отвечать на сообщения
Вы не можете редактировать свои сообщения
Вы не можете удалять свои сообщения
Вы не можете голосовать в опросах
Вы не можете прикреплять файлы к сообщениям
Вы можете скачивать файлы