Статистика раздачи
Размер:  33,98 GB   |    Зарегистрирован:  7 дней   |    Скачан:  0 раз
DL-List: Нет

Полного источника не было: Никогда

 
     
 
 

MAGNAT ®

Пол:
Мужской
Стаж:
1 год 2 месяца
Сообщений:
7620

Бакурау
Bacurau

Страна: Бразилия, Франция
Жанр: Драма, криминал
Год выпуска: 2019
Продолжительность: 02:11:06
Перевод: Любительский (многоголосый закадровый) WestFilm ненормативная лексика
Субтитры: Русские (StasSlender, ненормативная лексика), английские, португальские
Оригинальная аудиодорожка: Португальский
Режиссер: Жулиано Дорнель / Juliano Dornelles, Клебер Мендонса Фильо / Kleber Mendonça Filho
В ролях: Барбара Колен, Томас Аквино, Сильверо Перейра, Тарделли Лима, Рубенс Сантос, Уилсон Рабело, Карлос Франциско, Лусиана Соза, Карин Телес, Антонио Сабойа, Соня Брага, Удо Кир, Буда Лира, Едуарда Самара, Роджер Роджерио
Описание: Жители захолустного бразильского поселения Бакурау ничем особым не заняты: всем селом похоронив старейшую жительницу, селяне возвращаются к обыденности. Иногда к ним приезжает диджей и крутит видео, иногда — представитель местной власти, призывающий голосовать за него на очередных выборах. Но когда водовоз приходит изрешечённый пулями, а в окрестностях обнаруживают расстрелянных людей, некоторые начинают догадываться, что над их любимым Бакурау нависла смертельная угроза.
Тип релиза: BDRemux 1080p
Контейнер: MKV
Видео: MPEG-4 AVC, 1080p, 1920:1080 (16:9), 34999 kbps, 24.000 fps
Аудио 1: АС3, 2 ch, 48 kHz, 192 kbps, 16 bits Русский MVO WestFilm
Аудио 2: DTS-HD MA, 6 ch, 48 kHz, 3555 kbps, 24-bit (DTS Core 6 ch, 48 kHz, 1509 kbps, 24-bit) Португальский
Формат субтитров: SRT

MediaInfo

General
Unique ID : 59634935554531568082046715099157751312 (0x2CDD4553E8D5C069879CB26AEEF9E610)
Complete name : G:\Bacurau.2019.REMUX.mkv
Format : Matroska
Format version : Version 4
File size : 34.0 GiB
Duration : 2 h 11 min
Overall bit rate mode : Variable
Overall bit rate : 37.1 Mb/s
Encoded date : UTC 2020-05-17 10:48:23
Writing application : mkvmerge v20.0.0 ('I Am The Sun') 64-bit
Writing library : libebml v1.3.5 + libmatroska v1.4.8
Video
ID : 1
Format : AVC
Format/Info : Advanced Video Codec
Format profile : High@L4.1
Format settings : CABAC / 4 Ref Frames
Format settings, CABAC : Yes
Format settings, Reference frames : 4 frames
Format settings, GOP : M=3, N=24
Codec ID : V_MPEG4/ISO/AVC
Duration : 2 h 11 min
Bit rate mode : Constant
Bit rate : 35.0 Mb/s
Width : 1 920 pixels
Height : 1 080 pixels
Display aspect ratio : 16:9
Frame rate mode : Constant
Frame rate : 24.000 FPS
Standard : NTSC
Color space : YUV
Chroma subsampling : 4:2:0
Bit depth : 8 bits
Scan type : Progressive
Bits/(Pixel*Frame) : 0.703
Stream size : 30.5 GiB (90%)
Language : English
Default : Yes
Forced : No
Color range : Limited
Color primaries : BT.709
Transfer characteristics : BT.709
Matrix coefficients : BT.709
Audio #1
ID : 2
Format : AC-3
Format/Info : Audio Coding 3
Commercial name : Dolby Digital
Codec ID : A_AC3
Duration : 2 h 11 min
Bit rate mode : Constant
Bit rate : 192 kb/s
Channel(s) : 2 channels
Channel layout : L R
Sampling rate : 48.0 kHz
Frame rate : 31.250 FPS (1536 SPF)
Compression mode : Lossy
Stream size : 180 MiB (1%)
Title : MVO WestFilm
Language : Russian
Service kind : Complete Main
Default : Yes
Forced : No
Audio #2
ID : 3
Format : DTS XLL
Format/Info : Digital Theater Systems
Commercial name : DTS-HD Master Audio
Codec ID : A_DTS
Duration : 2 h 11 min
Bit rate mode : Variable
Bit rate : 3 555 kb/s
Channel(s) : 6 channels
Channel layout : C L R Ls Rs LFE
Sampling rate : 48.0 kHz
Frame rate : 93.750 FPS (512 SPF)
Bit depth : 24 bits
Compression mode : Lossless
Stream size : 3.26 GiB (10%)
Language : Portuguese
Default : No
Forced : No
Text #1
ID : 4
Format : UTF-8
Codec ID : S_TEXT/UTF8
Codec ID/Info : UTF-8 Plain Text
Duration : 2 h 11 min
Bit rate : 57 b/s
Count of elements : 1223
Stream size : 54.8 KiB (0%)
Title : StasSlender
Language : Russian
Default : No
Forced : No
Text #2
ID : 5
Format : UTF-8
Codec ID : S_TEXT/UTF8
Codec ID/Info : UTF-8 Plain Text
Duration : 2 h 0 min
Bit rate : 33 b/s
Count of elements : 1145
Stream size : 29.8 KiB (0%)
Language : English
Default : No
Forced : No
Text #3
ID : 6
Format : UTF-8
Codec ID : S_TEXT/UTF8
Codec ID/Info : UTF-8 Plain Text
Duration : 2 h 4 min
Bit rate : 40 b/s
Count of elements : 1347
Stream size : 37.0 KiB (0%)
Language : Portuguese
Default : No
Forced : No
Menu
00:00:00.000 : en:Chapter 01
00:10:56.167 : en:Chapter 02
00:21:50.625 : en:Chapter 03
00:33:28.458 : en:Chapter 04
00:44:27.375 : en:Chapter 05
00:57:45.208 : en:Chapter 06
01:08:52.000 : en:Chapter 07
01:19:55.125 : en:Chapter 08
01:32:48.125 : en:Chapter 09
01:44:11.417 : en:Chapter 10
01:55:33.333 : en:Chapter 11
02:05:39.375 : en:Chapter 12
[opentorrent.pro].t18974.torrent 
Торрент: Зарегистрирован [ 2020-05-22 18:05 ] · AFE1A64DCB5E81197E2448D3A617714CF714AD2A

Скачать .torrent

Скачать

170 KB

Статус: проверено
Скачан: 0 раз
Размер: 33,98 GB  ·  Тип торрента
terms.php
Профиль [ЛС]
Показать сообщения:    

Текущее время: 30-Май 02:15

Часовой пояс: UTC ± 0



Вы не можете начинать темы
Вы не можете отвечать на сообщения
Вы не можете редактировать свои сообщения
Вы не можете удалять свои сообщения
Вы не можете голосовать в опросах
Вы не можете прикреплять файлы к сообщениям
Вы можете скачивать файлы