Статистика раздачи
Размер:  24,49 GB   |    Зарегистрирован:  7 дней   |    Скачан:  0 раз
DL-List: Нет

Полного источника не было: Никогда

 
     
 
 

MAGNAT ®

Пол:
Мужской
Стаж:
1 год 2 месяца
Сообщений:
7620

Проект Даллас / The Dallas Connection
Страна: США
Жанр: боевик, криминал, эротика
Год выпуска: 1994
Продолжительность: 01:34:27-Перевод 1: Профессиональный (многоголосый закадровый) Студия "Формат А"
Перевод 2: Авторский (одноголосый закадровый) С. Визгунов
Субтитры: английские
Оригинальная аудиодорожка: английский-Режиссер: Дрю Сидарис / Drew Sidaris-В ролях: Брюс Пенхалл, Джули Стрэйн, Родриго Обрегон, Саманта Филлипс, Джули К. Смит, Венди Хэмилтон, Т.Дж. Майерс, Джералд Окамура, Роланд Маркус, Кэссиди Филлипс, Рон Браунинг, Том Эбботт, Алан Криер, Уильям Фэйн, Бетти Джо ЛеБрун
Описание: Четверо гениальных ученых работали над программой всемирного разоружения. Троих из них убивают, остается только один.
Задание федеральных спецагентов — спасти ему жизнь и Землю. И сексапильная красотка — главный козырь в этом.
Тип релиза: BDRemux 1080p
Контейнер: MKV-Видео: 1920x1080p (16:9), 23,976 fps, AVC MPEG-4 (x264), High@L4.1, ~ 35022 kbps, 0.704 bit/pixel-Аудио 1: Russian: 44,1 kHz, AC3, 2/0 (L,R) ch, ~192 kbps avg 16-bit | Студия "Формат А"
Аудио 2: Russian: 48 kHz, AC3, 2/0 (L,R) ch, ~192 kbps avg 16-bit | С. Визгунов
Аудио 3: English: 48 kHz/24-bit, DTS-HD MA 2.0 , ~1536 kbps avg (DTS Core: 5.1 / 48 kHz / 1509 kbps / 24-bit)
Аудио 4: English: 48 kHz, AC3, 2/0 (L,R) ch, ~384 kbps avg 16-bit | Commentary by Andy & Arlene Sidaris

MediaInfo

Общее
Уникальный идентификатор : 281558188855238528209180342261420144764 (0xD3D2227BB945417523DFD5D52694387C)
Полное имя : D:\Dallas.Connection.1994.Remux.1080p.mkv
Формат : Matroska
Версия формата : Version 4 / Version 2
Размер файла : 24,5 Гбайт
Продолжительность : 1 ч. 34 м.
Режим общего битрейта : Переменный
Общий поток : 37,1 Мбит/сек
Дата кодирования : UTC 2020-05-16 17:25:17
Программа кодирования : mkvmerge v37.0.0 ('Leave It') 64-bit
Библиотека кодирования : libebml v1.3.9 + libmatroska v1.5.2
Видео
Идентификатор : 1
Формат : AVC
Формат/Информация : Advanced Video Codec
Профиль формата : High@L4.1
Параметр CABAC формата : Да
Параметр RefFrames формата : 4 кадра
Идентификатор кодека : V_MPEG4/ISO/AVC
Продолжительность : 1 ч. 33 м.
Вид битрейта : Переменный
Битрейт : 35,0 Мбит/сек
Ширина : 1920 пикселей
Высота : 1080 пикселей
Соотношение сторон : 16:9
Режим частоты кадров : Постоянный
Частота кадров : 23,976 (24000/1001) кадра/сек
Стандарт вещания : NTSC
Цветовое пространство : YUV
Субдискретизация насыщенности : 4:2:0
Битовая глубина : 8 бит
Тип развёртки : Прогрессивная
Бит/(Пиксели*Кадры) : 0.704
Размер потока : 23,0 Гбайт (94%)
Язык : English
Default : Да
Forced : Нет
Цветовой диапазон : Limited
Основные цвета : BT.709
Характеристики трансфера : BT.709
Коэффициенты матрицы : BT.709
Аудио #1
Идентификатор : 2
Формат : AC-3
Формат/Информация : Audio Coding 3
Параметр Endianness формата : Big
Идентификатор кодека : A_AC3
Продолжительность : 1 ч. 33 м.
Вид битрейта : Постоянный
Битрейт : 192 Кбит/сек
Каналы : 2 канала
Расположение каналов : Front: L R
Частота : 44,1 КГц
Частота кадров : 28,711 кадров/сек (1536 SPF)
Битовая глубина : 16 бит
Метод сжатия : С потерями
Размер потока : 129 Мбайт (1%)
Заголовок : MVO
Язык : Russian
ServiceKind/String : Complete Main
Default : Да
Forced : Нет
Аудио #2
Идентификатор : 3
Формат : AC-3
Формат/Информация : Audio Coding 3
Параметр Endianness формата : Big
Идентификатор кодека : A_AC3
Продолжительность : 1 ч. 34 м.
Вид битрейта : Постоянный
Битрейт : 192 Кбит/сек
Каналы : 2 канала
Расположение каналов : Front: L R
Частота : 48,0 КГц
Частота кадров : 31,250 кадров/сек (1536 SPF)
Битовая глубина : 16 бит
Метод сжатия : С потерями
Задержка видео : 30 мс.
Размер потока : 130 Мбайт (1%)
Заголовок : AVO
Язык : Russian
ServiceKind/String : Complete Main
Default : Нет
Forced : Нет
Аудио #3
Идентификатор : 4
Формат : DTS
Формат/Информация : Digital Theater Systems
Профиль формата : MA / Core
Режим : 16
Параметр Endianness формата : Big
Идентификатор кодека : A_DTS
Продолжительность : 1 ч. 33 м.
Вид битрейта : Переменный / Постоянный
Битрейт : 1536 Кбит/сек / 1509 Кбит/сек
Каналы : 2 канала
Расположение каналов : Front: L R
Частота : 48,0 КГц
Частота кадров : 93,750 кадра/сек (512 SPF)
Битовая глубина : 24 бит
Метод сжатия : Без потерь / Lossy
Размер потока : 1,03 Гбайт (4%)
Язык : English
Default : Нет
Forced : Нет
Аудио #4
Идентификатор : 5
Формат : AC-3
Формат/Информация : Audio Coding 3
Параметр Endianness формата : Big
Идентификатор кодека : A_AC3
Продолжительность : 1 ч. 33 м.
Вид битрейта : Постоянный
Битрейт : 384 Кбит/сек
Каналы : 2 канала
Расположение каналов : Front: L R
Частота : 48,0 КГц
Частота кадров : 31,250 кадров/сек (1536 SPF)
Битовая глубина : 16 бит
Метод сжатия : С потерями
Размер потока : 258 Мбайт (1%)
Заголовок : Commentary by Andy & Arlene Sidaris
Язык : English
ServiceKind/String : Complete Main
Default : Нет
Forced : Нет
Текст
Идентификатор : 6
Формат : UTF-8
Идентификатор кодека : S_TEXT/UTF8
Идентификатор кодека/Информация : UTF-8 Plain Text
Продолжительность : 1 ч. 33 м.
Битрейт : 37 бит/сек
ElementCount : 981
Размер потока : 25,8 Кбайт (0%)
Заголовок : SDH
Язык : English
Default : Нет
Forced : Нет
Меню
00:00:00.000 : en:Main Titles
00:04:03.618 : en:Killer Lover
00:08:37.099 : en:See Scorpion Swing
00:20:15.631 : en:One Man Standing
00:28:44.305 : en:Security Lapse
00:37:57.525 : en:Dirty Dancing
00:50:04.543 : en:Hard Drive Fantasies
00:57:58.892 : en:What A Way To Die
01:09:12.731 : en:Black Widow Marks
01:19:27.429 : en:Chips Ahoy!
01:29:02.003 : en:The Mystery Of Romance
01:31:28.149 : en:End Credits

Скриншоты

[opentorrent.pro].t18980.torrent 
Торрент: Зарегистрирован [ 2020-05-22 18:10 ] · 26A29D0896C870ED55D5558DFC3FFE2B96146B59

Скачать .torrent

Скачать

123 KB

Статус: проверено
Скачан: 0 раз
Размер: 24,49 GB  ·  Тип торрента
terms.php
Профиль [ЛС]
Показать сообщения:    

Текущее время: 30-Май 01:52

Часовой пояс: UTC ± 0



Вы не можете начинать темы
Вы не можете отвечать на сообщения
Вы не можете редактировать свои сообщения
Вы не можете удалять свои сообщения
Вы не можете голосовать в опросах
Вы не можете прикреплять файлы к сообщениям
Вы можете скачивать файлы