Статистика раздачи
Размер:  26,95 GB   |    Зарегистрирован:  7 дней   |    Скачан:  0 раз
DL-List: Нет

Полного источника не было: Никогда

 
     
 
 

MAGNAT ®

Пол:
Мужской
Стаж:
1 год 2 месяца
Сообщений:
7620

Вивариум / Vivarium
Страна: Ирландия, Дания, Бельгия
Жанр: Фантастика, драма
Год выпуска: 2019
Продолжительность: 01:38:38
Перевод 1: Любительский (многоголосый закадровый) HDRezka Studio
Перевод 2: Одноголосый закадровый BadBajo
Субтитры: Русские forced, full х2 (Focs, MENINSUB ненормативная лексика), английские
Оригинальная аудиодорожка: Английский
Режиссер: Лоркан Финнеган / Lorcan Finnegan
В ролях: Имоджен Путс, Джесси Айзенберг, Сенан Дженнингс, Инна Хардвик, Даниэль Райан, Молли Макканн, Джонатан Арис, Ком Тири, Ольга Верли, Джек Хадсон
Описание: В поисках идеального дома молодая пара знакомится со странным агентом по недвижимости. Он привозит их в новый поселок в пригороде, а затем исчезает. Том и Джемма с ужасом понимают, что они абсолютно одни в этом жутковато-стерильном лабиринте одинаковых домов и что из него нет выхода. Вскоре их одиночество будет прервано появлением у дверей коробки с младенцем, который похож на человека лишь внешне…
Тип релиза: BDRemux 1080p
Контейнер: MKV
Видео: MPEG-4 AVC, 1080p, 1920:1080 (16:9), 34709 kbps, 23.976 fps
Аудио 1: АС3, 6 ch, 48 kHz, 448 kbps, 16 bits Русский MVO HDRezka Studio
Аудио 2: АС3, 6 ch, 48 kHz, 384 kbps, 16 bits Русский VO BadBajo
Аудио 3: DTS-HD MA, 6 ch, 48 kHz, 3374 kbps, 24-bit (DTS Core 6 ch, 48 kHz, 1509 kbps, 24-bit) Английский
Аудио 4: АС3, 2 ch, 48 kHz, 192 kbps, 16 bits Английский Commentary with director Lorcan Finnegan and executive producer Brunella Cocchiglia
Формат субтитров: SRТ

MediaInfo

General
Unique ID : 172910649792954051839135289789282051159 (0x8215613B7D05C7CF16C917ADA480E457)
Complete name : G:\Vivarium.2019.1080p.REMUX.mkv
Format : Matroska
Format version : Version 4
File size : 26.9 GiB
Duration : 1 h 38 min
Overall bit rate mode : Variable
Overall bit rate : 39.1 Mb/s
Encoded date : UTC 2020-05-16 03:16:33
Writing application : mkvmerge v20.0.0 ('I Am The Sun') 64-bit
Writing library : libebml v1.3.5 + libmatroska v1.4.8
Video
ID : 1
Format : AVC
Format/Info : Advanced Video Codec
Format profile : High@L4.1
Format settings : CABAC / 4 Ref Frames
Format settings, CABAC : Yes
Format settings, Reference frames : 4 frames
Codec ID : V_MPEG4/ISO/AVC
Duration : 1 h 38 min
Bit rate mode : Variable
Bit rate : 34.7 Mb/s
Maximum bit rate : 37.0 Mb/s
Width : 1 920 pixels
Height : 1 080 pixels
Display aspect ratio : 16:9
Frame rate mode : Constant
Frame rate : 23.976 (24000/1001) FPS
Color space : YUV
Chroma subsampling : 4:2:0
Bit depth : 8 bits
Scan type : Progressive
Bits/(Pixel*Frame) : 0.698
Stream size : 23.9 GiB (89%)
Language : English
Default : Yes
Forced : No
Audio #1
ID : 2
Format : AC-3
Format/Info : Audio Coding 3
Commercial name : Dolby Digital
Codec ID : A_AC3
Duration : 1 h 38 min
Bit rate mode : Constant
Bit rate : 448 kb/s
Channel(s) : 6 channels
Channel layout : L R C LFE Ls Rs
Sampling rate : 48.0 kHz
Frame rate : 31.250 FPS (1536 SPF)
Compression mode : Lossy
Stream size : 316 MiB (1%)
Title : MVO HDRezka Studio
Language : Russian
Service kind : Complete Main
Default : Yes
Forced : No
Audio #2
ID : 3
Format : AC-3
Format/Info : Audio Coding 3
Commercial name : Dolby Digital
Codec ID : A_AC3
Duration : 1 h 38 min
Bit rate mode : Constant
Bit rate : 384 kb/s
Channel(s) : 6 channels
Channel layout : L R C LFE Ls Rs
Sampling rate : 48.0 kHz
Frame rate : 31.250 FPS (1536 SPF)
Compression mode : Lossy
Stream size : 271 MiB (1%)
Title : VO BadBajo
Language : Russian
Service kind : Complete Main
Default : No
Forced : No
Audio #3
ID : 4
Format : DTS XLL
Format/Info : Digital Theater Systems
Commercial name : DTS-HD Master Audio
Codec ID : A_DTS
Duration : 1 h 38 min
Bit rate mode : Variable
Bit rate : 3 374 kb/s
Channel(s) : 6 channels
Channel layout : C L R Ls Rs LFE
Sampling rate : 48.0 kHz
Frame rate : 93.750 FPS (512 SPF)
Bit depth : 24 bits
Compression mode : Lossless
Stream size : 2.32 GiB (9%)
Language : English
Default : No
Forced : No
Audio #4
ID : 5
Format : AC-3
Format/Info : Audio Coding 3
Commercial name : Dolby Digital
Codec ID : A_AC3
Duration : 1 h 38 min
Bit rate mode : Constant
Bit rate : 192 kb/s
Channel(s) : 2 channels
Channel layout : L R
Sampling rate : 48.0 kHz
Frame rate : 31.250 FPS (1536 SPF)
Compression mode : Lossy
Stream size : 135 MiB (0%)
Title : Commentary with director and executive producer
Language : English
Service kind : Complete Main
Default : No
Forced : No
Text #1
ID : 6
Format : UTF-8
Codec ID : S_TEXT/UTF8
Codec ID/Info : UTF-8 Plain Text
Duration : 1 h 24 min
Bit rate : 1 b/s
Count of elements : 19
Stream size : 923 Bytes (0%)
Title : forced
Language : Russian
Default : Yes
Forced : No
Text #2
ID : 7
Format : UTF-8
Codec ID : S_TEXT/UTF8
Codec ID/Info : UTF-8 Plain Text
Duration : 1 h 27 min
Bit rate : 34 b/s
Count of elements : 603
Stream size : 22.4 KiB (0%)
Title : FOCS
Language : Russian
Default : No
Forced : No
Text #3
ID : 8
Format : UTF-8
Codec ID : S_TEXT/UTF8
Codec ID/Info : UTF-8 Plain Text
Duration : 1 h 27 min
Bit rate : 37 b/s
Count of elements : 612
Stream size : 24.2 KiB (0%)
Title : MENINSUB
Language : Russian
Default : No
Forced : No
Text #4
ID : 9
Format : UTF-8
Codec ID : S_TEXT/UTF8
Codec ID/Info : UTF-8 Plain Text
Duration : 1 h 33 min
Bit rate : 26 b/s
Count of elements : 637
Stream size : 17.8 KiB (0%)
Language : English
Default : No
Forced : No
Menu
00:00:00.000 : :Chapter 01
00:05:52.185 : :Chapter 02
00:12:26.871 : :Chapter 03
00:17:47.525 : :Chapter 04
00:22:23.217 : :Chapter 05
00:27:06.250 : :Chapter 06
00:35:45.977 : :Chapter 07
00:41:56.055 : :Chapter 08
00:46:25.199 : :Chapter 09
00:51:30.796 : :Chapter 10
00:54:06.034 : :Chapter 11
01:03:43.069 : :Chapter 12
01:12:21.587 : :Chapter 13
01:19:14.333 : :Chapter 14
01:25:33.295 : :Chapter 15
01:29:44.629 : :Chapter 16
[opentorrent.pro].t18986.torrent 
Торрент: Зарегистрирован [ 2020-05-22 18:14 ] · F35C844DEFA18E95EFCE9E64683AEA67BC99E4DB

Скачать .torrent

Скачать

135 KB

Статус: проверено
Скачан: 0 раз
Размер: 26,95 GB  ·  Тип торрента
terms.php
Профиль [ЛС]
Показать сообщения:    

Текущее время: 30-Май 03:16

Часовой пояс: UTC ± 0



Вы не можете начинать темы
Вы не можете отвечать на сообщения
Вы не можете редактировать свои сообщения
Вы не можете удалять свои сообщения
Вы не можете голосовать в опросах
Вы не можете прикреплять файлы к сообщениям
Вы можете скачивать файлы