Статистика раздачи
Размер:  7,2 GB   |    Зарегистрирован:  1 месяц 22 дня   |    Скачан:  0 раз
DL-List: Нет

Полного источника не было: Никогда

 
     
 
 

MAGNAT ®

Пол:
Мужской
Стаж:
1 год 3 месяца
Сообщений:
8796

Опасная роль Джин Сиберг / Seberg
«Кинозвезда против ФБР»
Страна: Великобритания, США
Студия: Phreaker Films, Bradley Pilz Productions, Automatik Entertainment
Жанр: триллер, драма, биография
Год выпуска: 2019
Продолжительность: 01:42:33
Перевод: Профессиональный (дублированный) (iTunes)
Субтитры: английские (Full, SDH)
Оригинальная аудиодорожка: английский
Режиссер: Бенедикт Эндрюс / Benedict Andrews
В ролях: Кристен Стюарт, Джек О`Коннелл, Маргарет Куэлли, Зази Битц, Винс Вон, Энтони Маки, Стивен Рут, Иван Атталь, Колм Мини, Сер`Дариус Блэйн, Гэбриел Скай, Виктория Барабаш
Описание: Конец 60-х. Красавица Джин Сиберг, любимица французской новой волны, возвращается в Лос-Анджелес. От предложений новых ролей нет отбоя, она - новая икона Голливуда. Но внезапный головокружительный роман с лидером партии Черные пантеры делают Джин мишенью спецслужб. Круглосуточная слежка ФБР и провокации грозят разрушить не только ее карьеру, но и жизнь.
Тип релиза: WEB-DL 1080p
Контейнер: MKV
Видео: MPEG-4/AVC, 1920x800, 9017 Kbit/s, 23.976 fps
Аудио 1: 48 kHz, AC3, 5.1, 384 Kbps | RUS | DUB | iTunes
Аудио 2: 48 kHz, E-AC3, 5.1, 640 Kbps | ENG | Оригинал
Формат субтитров: softsub (SRT)

MediaInfo

General
Unique ID : 324738349843212982271958426620369133825 (0xF44E54C9E0705032F32D19E7A2FD6101)
Complete name : Seberg.2019.WEB-DL.1080p.mkv
Format : Matroska
Format version : Version 4
File size : 7.20 GiB
Duration : 1 h 42 min
Overall bit rate : 10.0 Mb/s
Encoded date : UTC 2020-05-15 13:59:22
Writing application : mkvmerge v40.0.0 ('Old Town Road + Pony') 64-bit
Writing library : libebml v1.3.9 + libmatroska v1.5.2
Video
ID : 1
Format : AVC
Format/Info : Advanced Video Codec
Format profile : High@L4
Format settings : CABAC / 4 Ref Frames
Format settings, CABAC : Yes
Format settings, Reference fra : 4 frames
Codec ID : V_MPEG4/ISO/AVC
Duration : 1 h 42 min
Bit rate mode : Constant
Bit rate : 9 017 kb/s
Nominal bit rate : 10 000 kb/s
Width : 1 920 pixels
Height : 800 pixels
Display aspect ratio : 2.40:1
Frame rate mode : Constant
Frame rate : 23.976 (24000/1001) FPS
Color space : YUV
Chroma subsampling : 4:2:0
Bit depth : 8 bits
Scan type : Progressive
Bits/(Pixel*Frame) : 0.245
Stream size : 6.46 GiB (90%)
Language : English
Default : Yes
Forced : No
Color range : Limited
Color primaries : BT.709
Transfer characteristics : BT.709
Matrix coefficients : BT.709
Audio #1
ID : 2
Format : AC-3
Format/Info : Audio Coding 3
Commercial name : Dolby Digital
Codec ID : A_AC3
Duration : 1 h 42 min
Bit rate mode : Constant
Bit rate : 384 kb/s
Channel(s) : 6 channels
Channel layout : L R C LFE Ls Rs
Sampling rate : 48.0 kHz
Frame rate : 31.250 FPS (1536 SPF)
Compression mode : Lossy
Stream size : 281 MiB (4%)
Title : iTunes
Language : Russian
Service kind : Complete Main
Default : Yes
Forced : Yes
Audio #2
ID : 3
Format : E-AC-3
Format/Info : Enhanced AC-3
Commercial name : Dolby Digital Plus
Codec ID : A_EAC3
Duration : 1 h 42 min
Bit rate mode : Constant
Bit rate : 640 kb/s
Channel(s) : 6 channels
Channel layout : L R C LFE Ls Rs
Sampling rate : 48.0 kHz
Frame rate : 31.250 FPS (1536 SPF)
Compression mode : Lossy
Stream size : 469 MiB (6%)
Title : Original
Language : English
Service kind : Complete Main
Default : No
Forced : No
Text #1
ID : 4
Format : UTF-8
Codec ID : S_TEXT/UTF8
Codec ID/Info : UTF-8 Plain Text
Duration : 1 h 30 min
Bit rate : 50 b/s
Count of elements : 1110
Stream size : 33.1 KiB (0%)
Title : Full
Language : English
Default : No
Forced : No
Text #2
ID : 5
Format : UTF-8
Codec ID : S_TEXT/UTF8
Codec ID/Info : UTF-8 Plain Text
Duration : 1 h 41 min
Bit rate : 58 b/s
Count of elements : 1485
Stream size : 43.6 KiB (0%)
Title : SDH
Language : English
Default : No
Forced : No
Menu
00:00:00.000 : en:1
00:05:20.219 : en:2
00:10:13.178 : en:3
00:15:38.294 : en:4
00:21:51.834 : en:5
00:30:25.055 : en:6
00:36:41.472 : en:7
00:44:34.278 : en:8
00:53:36.778 : en:9
01:00:49.085 : en:10
01:08:46.936 : en:11
01:14:50.340 : en:12
01:21:58.559 : en:13
01:26:13.187 : en:14
01:27:36.728 : en:15
01:34:58.418 : en:16

Скриншоты

[opentorrent.pro].t18988.torrent 
Торрент: Зарегистрирован [ 2020-05-22 18:15 ] · BF5459A2CFBC545787FD85232E8F7E39A13BAEF4

Скачать .torrent

Скачать

18 KB

Статус: проверено
Скачан: 0 раз
Размер: 7,2 GB  ·  Тип торрента
terms.php
Профиль [ЛС]
Показать сообщения:    

Текущее время: 14-Июл 10:43

Часовой пояс: UTC ± 0



Вы не можете начинать темы
Вы не можете отвечать на сообщения
Вы не можете редактировать свои сообщения
Вы не можете удалять свои сообщения
Вы не можете голосовать в опросах
Вы не можете прикреплять файлы к сообщениям
Вы можете скачивать файлы