Статистика раздачи
Размер:  15,02 GB   |    Зарегистрирован:  7 дней   |    Скачан:  0 раз
DL-List: Нет

Полного источника не было: Никогда

 
     
 
 

MAGNAT ®

Пол:
Мужской
Стаж:
1 год 2 месяца
Сообщений:
7620

Лепрекон возвращается / Leprechaun Returns
Страна: США, Канада, ЮАР
Жанр: ужасы, фэнтези, комедия
Год выпуска: 2018
Продолжительность: 01:32:55-Перевод: Любительский (многоголосый закадровый) HDRezka Studio
Субтитры: английские
Оригинальная аудиодорожка: английский-Режиссер: Стивен Костански / Steven Kostanski-В ролях: Тейлор Спрейтлер, Пепи Сонуга, Сай Беннетт, Линден Порко, Марк Холтон, Бен Макгрегор, Леон Клайнгман, Эмили Рейд, Хизер Макдональд, Оливер Ллевелин Дженкинс
Описание: Двадцать пять лет назад молодая девушка вместе с друзьями сразили злого Лепрекона, а после они сбросили его в колодец в Северной Дакоте. В настоящее время территория, на которой стоит колодец, где заточили злодея, находится в собственности экологического колледжа. Группа студентов решает провести летние каникулы, превращая дом по соседству в идеальное "зеленое" жилище. Вскоре появление незваных гостей оживляет Лепрекона, и он выходит из длительной спячки, чтобы вернуть свое золото, а заодно убить всех тех, кто посмеет встать на его пути...-Тип релиза: BDRemux 1080p
Контейнер: MKV-Видео: 1920x1080p (16:9), 23,976 fps, AVC MPEG-4 (x264), High@L4.1, ~ 20921 kbps, 0.420 bit/pixel-Аудио 1: Russian: 48 kHz, AC3, 2/0 (L,R) ch, ~256 kbps avg 16-bit
Аудио 2: English: 48 kHz/16-bit, DTS-HD MA 5.1 , ~1990 kbps avg (DTS Core: 5.1 / 48 kHz / 1509 kbps / 16-bit)

MediaInfo

Общее
Уникальный идентификатор : 201968114813155485210125935636205717181 (0x97F1A4DE095E2D456C1AEA0714C2C6BD)
Полное имя : D:\Leprechaun.Returns.2018.Remux.1080p.mkv
Формат : Matroska
Версия формата : Version 4 / Version 2
Размер файла : 15,0 Гбайт
Продолжительность : 1 ч. 32 м.
Режим общего битрейта : Переменный
Общий поток : 23,1 Мбит/сек
Дата кодирования : UTC 2020-05-15 14:58:57
Программа кодирования : mkvmerge v37.0.0 ('Leave It') 64-bit
Библиотека кодирования : libebml v1.3.9 + libmatroska v1.5.2
Видео
Идентификатор : 1
Формат : AVC
Формат/Информация : Advanced Video Codec
Профиль формата : High@L4.1
Параметр CABAC формата : Да
Параметр RefFrames формата : 3 кадра
Параметр GOP формата : M=3, N=12
Идентификатор кодека : V_MPEG4/ISO/AVC
Продолжительность : 1 ч. 32 м.
Вид битрейта : Переменный
Битрейт : 20,9 Мбит/сек
Максимальный битрейт : 35,0 Мбит/сек
Ширина : 1920 пикселей
Высота : 1080 пикселей
Соотношение сторон : 16:9
Режим частоты кадров : Постоянный
Частота кадров : 23,976 (24000/1001) кадра/сек
Стандарт вещания : NTSC
Цветовое пространство : YUV
Субдискретизация насыщенности : 4:2:0
Битовая глубина : 8 бит
Тип развёртки : Прогрессивная
Бит/(Пиксели*Кадры) : 0.420
Размер потока : 13,6 Гбайт (90%)
Язык : English
Default : Да
Forced : Нет
Цветовой диапазон : Limited
Основные цвета : BT.709
Характеристики трансфера : BT.709
Коэффициенты матрицы : BT.709
Аудио #1
Идентификатор : 2
Формат : AC-3
Формат/Информация : Audio Coding 3
Параметр Endianness формата : Big
Идентификатор кодека : A_AC3
Продолжительность : 1 ч. 32 м.
Вид битрейта : Постоянный
Битрейт : 256 Кбит/сек
Каналы : 2 канала
Расположение каналов : Front: L R
Частота : 48,0 КГц
Частота кадров : 31,250 кадров/сек (1536 SPF)
Битовая глубина : 16 бит
Метод сжатия : С потерями
Задержка видео : 28 мс.
Размер потока : 170 Мбайт (1%)
Заголовок : MVO
Язык : Russian
ServiceKind/String : Complete Main
Default : Да
Forced : Нет
Аудио #2
Идентификатор : 3
Формат : DTS
Формат/Информация : Digital Theater Systems
Профиль формата : MA / Core
Режим : 16
Параметр Endianness формата : Big
Идентификатор кодека : A_DTS
Продолжительность : 1 ч. 32 м.
Вид битрейта : Переменный / Постоянный
Битрейт : 1990 Кбит/сек / 1509 Кбит/сек
Каналы : 6 каналов
Расположение каналов : Front: L C R, Side: L R, LFE
Частота : 48,0 КГц
Частота кадров : 93,750 кадра/сек (512 SPF)
Битовая глубина : 16 бит
Метод сжатия : Без потерь / Lossy
Размер потока : 1,29 Гбайт (9%)
Заголовок : Original
Язык : English
Default : Нет
Forced : Нет
Текст #1
Идентификатор : 4
Формат : UTF-8
Идентификатор кодека : S_TEXT/UTF8
Идентификатор кодека/Информация : UTF-8 Plain Text
Продолжительность : 1 ч. 27 м.
Битрейт : 48 бит/сек
ElementCount : 994
Размер потока : 31,1 Кбайт (0%)
Заголовок : full
Язык : English
Default : Нет
Forced : Нет
Текст #2
Идентификатор : 5
Формат : UTF-8
Идентификатор кодека : S_TEXT/UTF8
Идентификатор кодека/Информация : UTF-8 Plain Text
Продолжительность : 1 ч. 28 м.
Битрейт : 55 бит/сек
ElementCount : 1219
Размер потока : 35,7 Кбайт (0%)
Заголовок : SDH
Язык : English
Default : Нет
Forced : Нет
Меню
00:00:00.000 : en:Chapter 1
00:07:59.688 : en:Chapter 2
00:16:56.224 : en:Chapter 3
00:24:59.707 : en:Chapter 4
00:31:35.102 : en:Chapter 5
00:41:10.134 : en:Chapter 6
00:49:21.375 : en:Chapter 7
00:53:47.391 : en:Chapter 8
01:03:35.145 : en:Chapter 9
01:11:13.019 : en:Chapter 10
01:19:27.554 : en:Chapter 11
01:29:09.678 : en:Chapter 12

Скриншоты

[opentorrent.pro].t18990.torrent 
Торрент: Зарегистрирован [ 2020-05-22 18:16 ] · E51649A6EE582B09FBC22AF59B982899A7CB55D3

Скачать .torrent

Скачать

76 KB

Статус: проверено
Скачан: 0 раз
Размер: 15,02 GB  ·  Тип торрента
terms.php
Профиль [ЛС]
Показать сообщения:    

Текущее время: 30-Май 01:36

Часовой пояс: UTC ± 0



Вы не можете начинать темы
Вы не можете отвечать на сообщения
Вы не можете редактировать свои сообщения
Вы не можете удалять свои сообщения
Вы не можете голосовать в опросах
Вы не можете прикреплять файлы к сообщениям
Вы можете скачивать файлы