Статистика раздачи
Размер:  2,14 GB   |    Зарегистрирован:  7 дней   |    Скачан:  0 раз
DL-List: Нет

Полного источника не было: Никогда

 
     
 
 

MAGNAT ®

Пол:
Мужской
Стаж:
1 год 2 месяца
Сообщений:
7620

Comic Sans / Comic Sans
Страна: Хорватия
Студия: Kinorama
Жанр: драма, мелодрама, комедия
Год выпуска: 2018
Продолжительность: 01:38:46
Перевод: Субтитры
Субтитры: русские, английские, болгарские
Оригинальная аудиодорожка: хорватский
Режиссер: Невио Марасович / Nevio Marasovic
В ролях: Янко Попович Воларич, Златко Бурич, Наташа Янич, Милош Тимотиевич, Альма Прица, Инти Срадж, Жетти Остан Веджруп, Сара Йорт Дитлевсен, Миха Родман, Таня Рибич
Описание: Секс, алкоголь, наркотики, яхты и красивые хорватские улочки. Комедийная драма хорватского режиссера и сценариста Невио Марасовича — это авторское высказывание на тему отцов и детей, взаимоотношений и расставаний с любимыми, эгоизма и снобизма. Успешный молодой дизайнер Алан пытается восстановить отношения с бывшей девушкой, но обстоятельства помогают Алану по-новому взглянуть на свою жизнь и переосмыслить отношения с близкими людьми.
Тип релиза: HDTV 1080p
Контейнер: MKV
Видео: 1920x1080p, 16:9, 2916 kbps, 25 fps
Аудио: Хорватский MP3 2.0, 44,1 kHz, 128 kbps
Формат субтитров: softsub (SRT)

MediaInfo

General
Unique ID : 15466124014049323182493280757256867966 (0xBA2AAC97092690CC41625089CCCD07E)
Complete name : C:\_ComicSans\final2\Comic.sans.(2018).CROATIAN.rus.eng.bul.mkv
Format : Matroska
Format version : Version 4
File size : 2.14 GiB
Duration : 1 h 38 min
Overall bit rate : 3 106 kb/s
Writing application : Lavf58.29.100
Writing library : Lavf58.29.100
ErrorDetectionType : Per level 1
Video
ID : 1
Format : AVC
Format/Info : Advanced Video Codec
Format profile : High@L4
Format settings : CABAC / 4 Ref Frames
Format settings, CABAC : Yes
Format settings, Reference frames : 4 frames
Codec ID : V_MPEG4/ISO/AVC
Duration : 1 h 38 min
Bit rate : 2 917 kb/s
Width : 1 920 pixels
Height : 1 080 pixels
Display aspect ratio : 16:9
Frame rate mode : Constant
Frame rate : 25.000 FPS
Color space : YUV
Chroma subsampling : 4:2:0
Bit depth : 8 bits
Scan type : Progressive
Bits/(Pixel*Frame) : 0.056
Stream size : 2.01 GiB (94%)
Writing library : x264 core 146 r2538 121396c
Encoding settings : cabac=1 / ref=3 / deblock=1:0:0 / analyse=0x3:0x133 / me=hex / subme=7 / psy=1 / psy_rd=1.00:0.00 / mixed_ref=1 / me_range=16 / chroma_me=1 / trellis=1 / 8x8dct=1 / cqm=0 / deadzone=21,11 / fast_pskip=1 / chroma_qp_offset=-2 / threads=6 / lookahead_threads=1 / sliced_threads=0 / nr=0 / decimate=1 / interlaced=0 / bluray_compat=0 / constrained_intra=0 / bframes=3 / b_pyramid=2 / b_adapt=1 / b_bias=0 / direct=1 / weightb=1 / open_gop=0 / weightp=2 / keyint=250 / keyint_min=25 / scenecut=40 / intra_refresh=0 / rc_lookahead=40 / rc=crf / mbtree=1 / crf=20.0 / qcomp=0.60 / qpmin=10 / qpmax=51 / qpstep=4 / ip_ratio=1.40 / aq=1:1.00
Default : Yes
Forced : No
Audio
ID : 2
Format : MPEG Audio
Format version : Version 1
Format profile : Layer 3
Codec ID : A_MPEG/L3
Codec ID/Hint : MP3
Duration : 1 h 38 min
Bit rate mode : Constant
Bit rate : 128 kb/s
Channel(s) : 2 channels
Sampling rate : 44.1 kHz
Compression mode : Lossy
Stream size : 90.4 MiB (4%)
Default : Yes
Forced : No
Text #1
ID : 3
Format : UTF-8
Codec ID : S_TEXT/UTF8
Codec ID/Info : UTF-8 Plain Text
Duration : 1 h 36 min
Writing library : Lavc58.54.100 srt
Language : Russian
Default : Yes
Forced : No
Text #2
ID : 4
Format : UTF-8
Codec ID : S_TEXT/UTF8
Codec ID/Info : UTF-8 Plain Text
Duration : 1 h 35 min
Writing library : Lavc58.54.100 srt
Language : English
Default : No
Forced : No
Text #3
ID : 5
Format : UTF-8
Codec ID : S_TEXT/UTF8
Codec ID/Info : UTF-8 Plain Text
Duration : 1 h 36 min
Writing library : Lavc58.54.100 srt
Language : Bulgarian
Default : No
Forced : No

Скриншоты

[opentorrent.pro].t18994.torrent 
Торрент: Зарегистрирован [ 2020-05-22 18:19 ] · 03F77F288E23426FBD5C61E494025E9C774FC8FE

Скачать .torrent

Скачать

11 KB

Статус: проверено
Скачан: 0 раз
Размер: 2,14 GB  ·  Тип торрента
terms.php
Профиль [ЛС]
Показать сообщения:    

Текущее время: 30-Май 01:44

Часовой пояс: UTC ± 0



Вы не можете начинать темы
Вы не можете отвечать на сообщения
Вы не можете редактировать свои сообщения
Вы не можете удалять свои сообщения
Вы не можете голосовать в опросах
Вы не можете прикреплять файлы к сообщениям
Вы можете скачивать файлы