Статистика раздачи
Размер:  17,97 GB   |    Зарегистрирован:  7 дней   |    Скачан:  0 раз
DL-List: Нет

Полного источника не было: Никогда

 
     
 
 

MAGNAT ®

Пол:
Мужской
Стаж:
1 год 2 месяца
Сообщений:
7620

Восточный ветер 4: Легенда о Воине / Ostwind: Aris Ankunft
Страна: Германия
Жанр: семейный
Год выпуска: 2019
Продолжительность: 01:46:07-Перевод: Профессиональный (дублированный) iTunes
Субтитры: русские, английские
Оригинальная аудиодорожка: немецкий-Режиссер: Тереза фон Эльц / Theresa von Eltz-В ролях: Луна Пайяно, Марион Алессандра Бекер, Мерет Беккер, Ханна Бинке, Амбер Бонгард, Детлев Бук, Тимо Диркес, Лили Эппли, Корнелия Фробёсс, Михаэль Гримм
Описание: Несчастный случай испытывает на прочность тонкую душевную связь между Микой и Оствиндом. Всё меняется, когда Фанни привозит в Кальтенбах Ари — девочку с очень сложным характером и непростой судьбой. Ари практически сразу необъяснимым образом находит подход к неукротимому Оствинду.-Тип релиза: BDRemux 1080p
Контейнер: MKV-Видео: 1920x1080p (16:9), 24 fps, AVC MPEG-4 (x264), High@L4.1, ~ 21801 kbps, 0.438 bit/pixel-Аудио 1: Russian: 48 kHz, AC3, 3/2 (L,C,R,l,r) + LFE ch, ~384 kbps avg / 16-bit
Аудио 2: German: 48 kHz/24-bit, DTS-HD HR 5.1 , ~2046 kbps avg (DTS Core: 5.1 / 48 kHz / 1509 kbps / 24-bit)

MediaInfo

Общее
Уникальный идентификатор : 54867154681273068471357365793255340002 (0x29470794F0B92D3C0B4795FA1E5837E2)
Полное имя : D:\Ostwind.Aris.Ankunft.2019.Remux.1080p.mkv
Формат : Matroska
Версия формата : Version 4 / Version 2
Размер файла : 18,0 Гбайт
Продолжительность : 1 ч. 46 м.
Режим общего битрейта : Переменный
Общий поток : 24,2 Мбит/сек
Дата кодирования : UTC 2020-05-16 14:40:12
Программа кодирования : mkvmerge v37.0.0 ('Leave It') 64-bit
Библиотека кодирования : libebml v1.3.9 + libmatroska v1.5.2
Видео
Идентификатор : 1
Формат : AVC
Формат/Информация : Advanced Video Codec
Профиль формата : High@L4.1
Параметр CABAC формата : Да
Параметр RefFrames формата : 4 кадра
Идентификатор кодека : V_MPEG4/ISO/AVC
Продолжительность : 1 ч. 46 м.
Вид битрейта : Переменный
Битрейт : 21,8 Мбит/сек
Максимальный битрейт : 38,0 Мбит/сек
Ширина : 1920 пикселей
Высота : 1080 пикселей
Соотношение сторон : 16:9
Режим частоты кадров : Постоянный
Частота кадров : 24,000 кадра/сек
Цветовое пространство : YUV
Субдискретизация насыщенности : 4:2:0
Битовая глубина : 8 бит
Тип развёртки : Прогрессивная
Бит/(Пиксели*Кадры) : 0.438
Размер потока : 16,2 Гбайт (90%)
Язык : German
Default : Да
Forced : Нет
Аудио #1
Идентификатор : 2
Формат : AC-3
Формат/Информация : Audio Coding 3
Параметр Endianness формата : Big
Идентификатор кодека : A_AC3
Продолжительность : 1 ч. 46 м.
Вид битрейта : Постоянный
Битрейт : 384 Кбит/сек
Каналы : 6 каналов
Расположение каналов : Front: L C R, Side: L R, LFE
Частота : 48,0 КГц
Частота кадров : 31,250 кадров/сек (1536 SPF)
Битовая глубина : 16 бит
Метод сжатия : С потерями
Размер потока : 291 Мбайт (2%)
Заголовок : DUB
Язык : Russian
ServiceKind/String : Complete Main
Default : Да
Forced : Нет
Аудио #2
Идентификатор : 3
Формат : DTS
Формат/Информация : Digital Theater Systems
Профиль формата : HRA / Core
Режим : 16
Параметр Endianness формата : Big
Идентификатор кодека : A_DTS
Продолжительность : 1 ч. 46 м.
Вид битрейта : Постоянный
Битрейт : 2046 Кбит/сек / 1509 Кбит/сек
Каналы : 6 каналов
Расположение каналов : Front: L C R, Side: L R, LFE
Частота : 48,0 КГц
Частота кадров : 93,750 кадра/сек (512 SPF)
Битовая глубина : 24 бит
Метод сжатия : С потерями
Размер потока : 1,52 Гбайт (8%)
Заголовок : Original
Язык : German
Default : Нет
Forced : Нет
Текст #1
Идентификатор : 4
Формат : UTF-8
Идентификатор кодека : S_TEXT/UTF8
Идентификатор кодека/Информация : UTF-8 Plain Text
Продолжительность : 1 ч. 40 м.
Битрейт : 71 бит/сек
ElementCount : 1070
Размер потока : 52,4 Кбайт (0%)
Заголовок : Full
Язык : Russian
Default : Нет
Forced : Нет
Текст #2
Идентификатор : 5
Формат : UTF-8
Идентификатор кодека : S_TEXT/UTF8
Идентификатор кодека/Информация : UTF-8 Plain Text
Продолжительность : 1 ч. 39 м.
Битрейт : 43 бит/сек
ElementCount : 988
Размер потока : 31,5 Кбайт (0%)
Заголовок : Full
Язык : English
Default : Нет
Forced : Нет
Меню
00:00:00.000 : en:Глава 01
00:08:01.790 : en:Глава 02
00:14:55.582 : en:Глава 03
00:22:16.375 : en:Глава 04
00:28:53.875 : en:Глава 05
00:34:12.875 : en:Глава 06
00:41:06.833 : en:Глава 07
00:48:43.250 : en:Глава 08
00:55:50.916 : en:Глава 09
01:02:01.333 : en:Глава 10
01:08:58.082 : en:Глава 11
01:16:36.166 : en:Глава 12
01:22:57.707 : en:Глава 13
01:29:51.332 : en:Глава 14
01:35:42.000 : en:Глава 15
01:40:38.416 : en:Глава 16

Скриншоты

-
[opentorrent.pro].t18999.torrent 
Торрент: Зарегистрирован [ 2020-05-22 18:22 ] · 0B0AB52048E035777C445EF13B63653CDC45CC27

Скачать .torrent

Скачать

90 KB

Статус: проверено
Скачан: 0 раз
Размер: 17,97 GB  ·  Тип торрента
terms.php
Профиль [ЛС]
Показать сообщения:    

Текущее время: 30-Май 01:20

Часовой пояс: UTC ± 0



Вы не можете начинать темы
Вы не можете отвечать на сообщения
Вы не можете редактировать свои сообщения
Вы не можете удалять свои сообщения
Вы не можете голосовать в опросах
Вы не можете прикреплять файлы к сообщениям
Вы можете скачивать файлы