Статистика раздачи
Нет
 
     
 
 

serzh ®

Пол:
Не указан
Стаж:
1 год 6 месяцев
Сообщений:
442

Власть / Power
Страна: США
Жанр: Драма
Год выпуска: 1986
Продолжительность: 01:50:48
Перевод: Авторский (одноголосый закадровый) Алексей Михалёв
Субтитры: нет
Оригинальная аудиодорожка: английский
Режиссер: Сидни Люмет / Sidney Lumet
В ролях: Ричард Гир
Джули Кристи
Джин Хэкмен
Кейт Кэпшоу
Дензел Вашингтон
Э. Г. Маршалл
Беатрис Стрэйт
Фриц Уивер
Майкл Лернд
Дж.Т. Уолш
Описание: В этом расследовании политических и финансовых махинаций в сфере большого бизнеса Ричард Гир исполняет роль крутого газетного магната, работающего на политиков.
Он и его наставник доказывают, что люди голосуют отнюдь не потому, что делают сознательный выбор, а потому, что идут на поводу у политиков.
Доп. информация: Звуковая дорожка А. Михалёва снята и синхронизирована мною с VHS
Видеоряд взял здесь http://cybertorrent.ru/forum/viewtopic.php?t=4489951
Сэмпл: https://yadi.sk/i/faIp7gG08d9KOw
Качество видео: WEB-DLRip
Формат видео: AVI
Видео: 688x384 (1.79:1), 23.976 fps, XviD build 73 ,1484 kbps avg
Аудио: AC3 , 48 kHz , 192.00 kbps avg , 2/0 (L,R) ch
Аудио 2: AC3 , 48 kHz , 192.00 kbps avg , 2/0 (L,R) ch

MediaInfo

Complete name Власть - Power 1986 (Mihalev).avi
Format : AVI
Format/Info : Audio Video Interleave
File size : 1.46 GiB
Duration : 1h 50mn
Overall bit rate : 1 882 Kbps
Writing application : VirtualDubMod 1.5.10.3 | www.virtualdub-fr.org || (build 2550/release)
Writing library : VirtualDubMod build 2550/release
Video
ID : 0
Format : MPEG-4 Visual
Format profile : Advanced Simple@L5
Format settings, BVOP : 1
Format settings, QPel : No
Format settings, GMC : No warppoints
Format settings, Matrix : Custom
Codec ID : XVID
Codec ID/Hint : XviD
Duration : 1h 50mn
Bit rate : 1 484 Kbps
Width : 688 pixels
Height : 384 pixels
Display aspect ratio : 16:9
Frame rate : 23.976 (23976/1000) fps
Color space : YUV
Chroma subsampling : 4:2:0
Bit depth : 8 bits
Scan type : Progressive
Compression mode : Lossy
Bits/(Pixel*Frame) : 0.234
Stream size : 1.15 GiB (79%)
Writing library : XviD 73
Audio #1
ID : 1
Format : AC-3
Format/Info : Audio Coding 3
Mode extension : CM (complete main)
Format settings, Endianness : Big
Codec ID : 2000
Duration : 1h 50mn
Bit rate mode : Constant
Bit rate : 192 Kbps
Channel(s) : 2 channels
Channel positions : Front: L R
Sampling rate : 48.0 KHz
Frame rate : 31.250 fps (1536 spf)
Compression mode : Lossy
Delay relative to video : 30ms
Stream size : 152 MiB (10%)
Alignment : Split accross interleaves
Interleave, duration : 42 ms (1.00 video frame)
Interleave, preload duratio : 500 ms
Audio #2
ID : 2
Format : AC-3
Format/Info : Audio Coding 3
Mode extension : CM (complete main)
Format settings, Endianness : Big
Codec ID : 2000
Duration : 1h 50mn
Bit rate mode : Constant
Bit rate : 192 Kbps
Channel(s) : 2 channels
Channel positions : Front: L R
Sampling rate : 48.0 KHz
Frame rate : 31.250 fps (1536 spf)
Compression mode : Lossy
Delay relative to video : 30ms
Stream size : 152 MiB (10%)
Alignment : Split accross interleaves
Interleave, duration : 42 ms (1.00 video frame)
Interleave, preload duratio : 500 ms

Скриншоты

Профиль [ЛС]
Показать сообщения:    

Текущее время: 24-Сен 10:10

Часовой пояс: UTC ± 0



Вы не можете начинать темы
Вы не можете отвечать на сообщения
Вы не можете редактировать свои сообщения
Вы не можете удалять свои сообщения
Вы не можете голосовать в опросах
Вы не можете прикреплять файлы к сообщениям
Вы не можете скачивать файлы