Статистика раздачи
Размер:  21,82 GB   |    Зарегистрирован:  1 год 2 месяца   |    Скачан:  0 раз
DL-List: Нет
Сидов:  4  [  0 KB/s  ]   Личеров:  1  [  0 KB/s  ]  
 
     
 
 

Гость ®

Пол:
Не указан

Подкидыш
Год выпуска: 2018
Производство: Медиаслово
Жанр: детектив
Продолжительность: ~00:50:00
Субтитры: Отсутствуют
Режиссёр: Антон Борматов
В ролях: Антон Шагин, Тимофей Трибунцев, Аглая Тарасова, Сергей Барковский, Семён Шкаликов, Николай Шрайбер, Любовь Виролайнен, Игорь Дудоладов, Михаил Соловьев, Евгения Глотова
Описание: 1926 год. Разгар НЭПа. Новгородский жулик Подкидыш, убегая от местных бандитов, попадает в Ленинград. Сотрудники милиции по ошибке принимают его за известного сыщика, которого недавно назначили начальником отдела УГРО. Подкидыш планирует незаметно исчезнуть, но, узнав, что в городе есть большой склад дорогих улик и экспроприированных вещей, решает не торопиться. Ограбить помещение, имея на руках удостоверение милиционера, довольно легко, и преступник продумывает похищение…
Доп. информация: Рип с сервиса "Кинопоиск"
Реклама: Нет
Сэмпл: Сэмпл
Качество: WEBRip 1080р
Формат: MKV
Видео кодек: H.264
Аудио кодек: AAC LC
Видео: avc, 1920x1080, 25fps, 5000kbps, 0.096bit/pixel
Аудио: aac lc, 48000Hz, 2ch, ~250kbps

MI

Общее
Уникальный идентификатор : 5685036112505323679323266986965380430 (0x446E5EBBE283C9EBD6DD6309CCAAD4E)
Полное имя : C:\Users\Videos\Подкидыш.s01.RUSSIAN.1080p.КПRip.AAC.x264\01 - Я следователь.mkv
Формат : Matroska
Версия формата : Version 4
Размер файла : 1,79 Гбайт
Продолжительность : 49 м. 39 с.
Общий поток : 5151 Кбит/сек
Дата кодирования : UTC 2019-04-26 05:18:50
Программа кодирования : mkvmerge v33.1.0 ('Primrose') 64-bit
Библиотека кодирования : libebml v1.3.7 + libmatroska v1.5.0
Видео
Идентификатор : 1
Формат : AVC
Формат/Информация : Advanced Video Codec
Профиль формата : High@L4.1
Настройки формата : CABAC / 4 Ref Frames
Параметр CABAC формата : Да
Параметр RefFrames формата : 4 кадра
Идентификатор кодека : V_MPEG4/ISO/AVC
Продолжительность : 49 м. 39 с.
Битрейт : 5000 Кбит/сек
Ширина : 1920 пикселей
Высота : 1080 пикселей
Соотношение сторон : 16:9
Режим частоты кадров : Постоянный
Частота кадров : 25,000 кадров/сек
Цветовое пространство : YUV
Субдискретизация насыщенности : 4:2:0
Битовая глубина : 8 бит
Тип развёртки : Прогрессивная
Бит/(Пиксели*Кадры) : 0.096
Размер потока : 1,70 Гбайт (95%)
Библиотека кодирования : x264 core 148 r2721 72d53ab
Настройки программы : cabac=1 / ref=4 / deblock=1:0:0 / analyse=0x3:0x133 / me=umh / subme=10 / psy=1 / psy_rd=1.00:0.00 / mixed_ref=1 / me_range=24 / chroma_me=1 / trellis=2 / 8x8dct=1 / cqm=0 / deadzone=21,11 / fast_pskip=1 / chroma_qp_offset=-2 / threads=34 / lookahead_threads=5 / sliced_threads=0 / nr=0 / decimate=1 / interlaced=0 / bluray_compat=0 / constrained_intra=0 / bframes=8 / b_pyramid=2 / b_adapt=2 / b_bias=0 / direct=3 / weightb=1 / open_gop=0 / weightp=2 / keyint=100 / keyint_min=50 / scenecut=40 / intra_refresh=0 / rc_lookahead=60 / rc=2pass / mbtree=1 / bitrate=5000 / ratetol=1.0 / qcomp=0.60 / qpmin=0 / qpmax=69 / qpstep=4 / cplxblur=20.0 / qblur=0.5 / vbv_maxrate=5000 / vbv_bufsize=5000 / nal_hrd=none / filler=0 / ip_ratio=1.40 / aq=1:1.00
Язык : Russian
Default : Да
Forced : Нет
Аудио
Идентификатор : 2
Формат : AAC LC
Формат/Информация : Advanced Audio Codec Low Complexity
Идентификатор кодека : A_AAC-2
Продолжительность : 49 м. 39 с.
Битрейт : 250 Кбит/сек
Каналы : 2 канала
Channel layout : L R
Частота : 48,0 КГц
Частота кадров : 46,875 кадров/сек (1024 SPF)
Метод сжатия : С потерями
Размер потока : 88,9 Мбайт (5%)
Язык : Russian
Default : Да
Forced : Нет

Скриншоты

Предыдущие и альтернативные раздачи
[opentorrent.pro].t2314.torrent 
Торрент: Зарегистрирован [ 2019-04-27 17:09 ] · AE1520A76DD810F799D0857ECD54D62306FF4B5E

Скачать .torrent

Скачать

56 KB

Статус: проверено
Скачан: 0 раз
Размер: 21,82 GB  ·  Тип торрента
terms.php
Показать сообщения:    

Текущее время: 08-Июл 08:20

Часовой пояс: UTC ± 0



Вы не можете начинать темы
Вы не можете отвечать на сообщения
Вы не можете редактировать свои сообщения
Вы не можете удалять свои сообщения
Вы не можете голосовать в опросах
Вы не можете прикреплять файлы к сообщениям
Вы можете скачивать файлы