Статистика раздачи
Размер:  8,15 GB   |    Зарегистрирован:  1 год   |    Скачан:  0 раз
DL-List: Нет
Сидов:  12  [  0 KB/s  ]   Личеров:  2  [  0 KB/s  ]  
 
     
 
 

Гость ®

Пол:
Не указан

Отпуск за период службы
Год выпуска: 2019
Производство: Вайт Медиа
Жанр: криминал, боевик, мелодрама
Продолжительность: ~00:48:00 серия
Субтитры: нет
Режиссёр: Станислав Мареев
В ролях: Игорь Новосёлов, Кристина Борейко, Оксана Чивелева, Андрей Новик, Марина Волкова, Александр Ефремов, Александр Фисенко, Павел Харланчук
Описание: Сержант-контрактник Игорь Беликов берет незапланированный отпуск, чтобы навестить якобы больного отца. Дорога домой становится для него нелегким испытанием. Спасаясь от неожиданного нападения, он убивает нескольких преступников и угоняет фургон, в котором находится ценный груз. Владельцы груза и полицейские начинают на Игоря настоящую охоту. Сыщики, в отличие от бандитов, хотят для начала разобраться, зачем Беликов взял «отпуск за период службы», ведь его отец на самом деле жив-здоров, а сестра Ира уехала на все лето в гости к подруге…

Реклама: Нет.
Кинопоиск
Все раздачи сериала
Sample
Качество: WEBRip 1080p - ExKinoRay
Формат: MKV
Видео кодек: H.264
Аудио кодек: AC3
Видео: MPEG4 AVC Video, H264, 16:9, 1920x1080, 25 fps, ~6000 kbps, 0.116 bit/pixel
Аудио: AC3 Dolby Digital, 48.0 kHz, 2/0 (L,R) ch, 192 kbps

MI

General
Unique ID : 234453532881723150605041534617867331466 (0xB0621BA2E6C52BE692A924DDF3F1278A)
Complete name : D:\Otpusk.za.period.sluzhby.2018.WEB-DL.(1080p).ExKinoRay\Otpusk.za.period.sluzhby.(01.seriya.iz.04).2018.WEB-DL.(1080p).ExKinoRay.mkv
Format : Matroska
Format version : Version 4 / Version 2
File size : 2.01 GiB
Duration : 47 min 1 s
Overall bit rate mode : Constant
Overall bit rate : 6 132 kb/s
Encoded date : UTC 2019-05-01 09:21:57
Writing application : mkvmerge v7.8.0 ('River Man') 32bit built on Mar 27 2015 16:18:02
Writing library : libebml v1.3.1 + libmatroska v1.4.2
Video
ID : 1
Format : AVC
Format/Info : Advanced Video Codec
Format profile : High@L4.1
Format settings : 2 Ref Frames
Format settings, CABAC : No
Format settings, ReFrames : 2 frames
Codec ID : V_MPEG4/ISO/AVC
Duration : 47 min 1 s
Bit rate mode : Constant
Bit rate : 6 000 kb/s
Width : 1 920 pixels
Height : 1 080 pixels
Display aspect ratio : 16:9
Frame rate mode : Constant
Frame rate : 25.000 FPS
Standard : PAL
Color space : YUV
Chroma subsampling : 4:2:0
Bit depth : 8 bits
Scan type : Progressive
Bits/(Pixel*Frame) : 0.116
Stream size : 1.95 GiB (97%)
Default : Yes
Forced : No
Color range : Limited
Color primaries : BT.709
Transfer characteristics : BT.709
Matrix coefficients : BT.709
Audio
ID : 2
Format : AC-3
Format/Info : Audio Coding 3
Codec ID : A_AC3
Duration : 47 min 1 s
Bit rate mode : Constant
Bit rate : 192 kb/s
Channel(s) : 2 channels
Channel positions : Front: L R
Sampling rate : 48.0 kHz
Frame rate : 31.250 FPS (1536 SPF)
Bit depth : 16 bits
Compression mode : Lossy
Stream size : 64.6 MiB (3%)
Language : Russian
Service kind : Complete Main
Default : Yes
Forced : No

Скриншоты


[opentorrent.pro].t2448.torrent 
Торрент: Зарегистрирован [ 2019-05-02 17:09 ] · AAF67C2FE7BFB22EAE4C32ABB93A8BDC3B911CBD

Скачать .torrent

Скачать

42 KB

Статус: проверено
Скачан: 0 раз
Размер: 8,15 GB  ·  Тип торрента
terms.php
Показать сообщения:    

Текущее время: 25-Май 06:43

Часовой пояс: UTC ± 0



Вы не можете начинать темы
Вы не можете отвечать на сообщения
Вы не можете редактировать свои сообщения
Вы не можете удалять свои сообщения
Вы не можете голосовать в опросах
Вы не можете прикреплять файлы к сообщениям
Вы можете скачивать файлы