Статистика раздачи
Размер:  4,14 GB   |    Зарегистрирован:  1 год   |    Скачан:  0 раз
DL-List: Нет
Сидов:  9  [  0 KB/s  ]  
 
     
 
 

Гость ®

Пол:
Не указан

Мастер охоты на единорога
Год выпуска: 2019
Производство: Марс Медиа Энтертейнмент
Жанр: детектив
Продолжительность: ~00:44:00 серия
Субтитры: нет
Режиссёр: Юрий Попович
В ролях: Елена Великанова, Максим Щёголев, Любовь Германова, Валерий Сторожик, Виктория Герасимова, Дмитрий Бедерин, Кирилл Рубцов, Оксана Гуляева, Людмила Свитова, Анатолий Гущин, Анна Попова, Владимир Шульга, Алексей Гнилицкий
Описание: На Александру Корзухину выходит необычный заказчик. Загадочность и некоторая мистичность клиента заставляет Корзухину согласиться на поиски старинного гобелена. Словно под гипнозом мужчины, Саша пускается в новое приключение, которое становится всё опаснее с каждым шагом. Очевидно, что за Единорогом охотится не она одна, но каждый, кто может пролить свет на дело, умирает до того, как Саша успевает задать вопросы. А вопросов все больше, и главный из них: что за человек этот заказчик, да и человек ли он?

Реклама: Нет.
Кинопоиск
Все раздачи сериала
Sample
Качество: WEBRip 720p - Getty
Формат: MKV
Видео кодек: H.264
Аудио кодек: AC3
Видео: MPEG4 AVC Video, H264, 16:9, 1280x720, 25 fps, ~3200 kbps, 0.139 bit/pixel
Аудио: AC3, 48.0 kHz, 2/0 (L,R) ch, 192 kbps

MI

General
Unique ID : 253341434517513392104289224093158322022 (0xBE97C915D0CB7A14BB21493353CFAF66)
Complete name : D:\Master.ohoty.na.edinoroga.2019.WEB-DL.(720p).Getty\Master.ohoty.na.edinoroga.e01.2019.WEB-DL.(720p).Getty.mkv
Format : Matroska
Format version : Version 4 / Version 2
File size : 1.01 GiB
Duration : 43 min 44 s
Overall bit rate mode : Constant
Overall bit rate : 3 294 kb/s
Movie name : Master.ohoty.na.edinoroga.e01.2019.WEB-DL.(720p).Getty
Encoded date : UTC 2019-05-02 16:16:48
Writing application : mkvmerge v7.8.0 ('River Man') 32bit built on Mar 27 2015 16:18:02
Writing library : libebml v1.3.1 + libmatroska v1.4.2
Video
ID : 1
Format : AVC
Format/Info : Advanced Video Codec
Format profile : High@L4.1
Format settings : CABAC / 4 Ref Frames
Format settings, CABAC : Yes
Format settings, ReFrames : 4 frames
Codec ID : V_MPEG4/ISO/AVC
Duration : 43 min 44 s
Bit rate mode : Constant
Bit rate : 3 200 kb/s
Width : 1 280 pixels
Height : 720 pixels
Display aspect ratio : 16:9
Frame rate mode : Constant
Frame rate : 25.000 FPS
Color space : YUV
Chroma subsampling : 4:2:0
Bit depth : 8 bits
Scan type : Progressive
Bits/(Pixel*Frame) : 0.139
Stream size : 970 MiB (94%)
Default : Yes
Forced : No
Audio
ID : 2
Format : AC-3
Format/Info : Audio Coding 3
Codec ID : A_AC3
Duration : 43 min 44 s
Bit rate mode : Constant
Bit rate : 192 kb/s
Channel(s) : 2 channels
Channel positions : Front: L R
Sampling rate : 48.0 kHz
Frame rate : 31.250 FPS (1536 SPF)
Bit depth : 16 bits
Compression mode : Lossy
Stream size : 60.1 MiB (6%)
Service kind : Complete Main
Default : Yes
Forced : No

Скриншоты


[opentorrent.pro].t2482.torrent 
Торрент: Зарегистрирован [ 2019-05-03 15:36 ] · 6411D5995144C6ED5F6C05A070CD35EAF44CC20F

Скачать .torrent

Скачать

22 KB

Статус: проверено
Скачан: 0 раз
Размер: 4,14 GB  ·  Тип торрента
terms.php
Показать сообщения:    

Текущее время: 31-Май 04:30

Часовой пояс: UTC ± 0



Вы не можете начинать темы
Вы не можете отвечать на сообщения
Вы не можете редактировать свои сообщения
Вы не можете удалять свои сообщения
Вы не можете голосовать в опросах
Вы не можете прикреплять файлы к сообщениям
Вы можете скачивать файлы