Статистика раздачи
Размер:  746 MB   |    Зарегистрирован:  1 год 2 месяца   |    Скачан:  1 раз
DL-List: Нет

Полного источника не было: 1 год 1 месяц

 
     
 
 

karlll ®

Пол:
Не указан
Стаж:
1 год 4 месяца
Сообщений:
196

Как приручить дракона 3 / How to Train Your Dragon: The Hidden World
Слоган: «Братья навеки»
Страна: США
Студия: DreamWorks Animation, Mad Hatter Entertainment
Жанр: Мультфильм, фэнтези, комедия, приключения
Продолжительность: 01:44:06
Год выпуска: 2019
Перевод: Профессиональный (дублированный) iTunes
Русские субтитры: нет--Режиссёр: Дин ДеБлуа / Dean DeBlois--Роли озвучивали: Кейт Бланшетт, Джерард Батлер, Джона Хилл, Кит Харингтон, Кристен Уиг, Джей Барушель, Кристофер Минц-Плассе, Америка Феррера, Оулавюр Дарри Оулафссон, Ф. Мюррэй Абрахам, Крэйг Фергюсон, Джастин Руппл--Описание: Когда-то викинги жили в гармонии с драконами. В те времена они делили радость, горе… и последние штаны. Казалось, что так будет всегда, но появление загадочной Дневной Фурии изменило жизнь острова. И теперь Иккинг и Беззубик столкнутся с безжалостным охотником на драконов, жаждущим уничтожить все, что им дорого.-- . --Качество: BDRip-AVC How to Train Your Dragon: The Hidden World (2019) Blu-ray Disc -BLUEBIRD
Формат: MKV
Видео: AVC, 800x340 (2.35:1), 933 kbps, 23.976 fps, 0.143 bit/pixel
Аудио: AАС-HE Advanced Audio, 2/0 (L,R) ch, 48 kHz, 68 kbps.
Субтитры: Английские (Full, SDH)
Сэмпл-

Скриншоты

Подробные технические данные

x264

raw [info]: 800x340p 1:1 @ 24000/1001 fps (cfr)
x264 [info]: using SAR=1/1
x264 [info]: using cpu capabilities: MMX2 SSE2Fast SSSE3 SSE4.2 AVX
x264 [info]: profile High, level 4.1, 4:2:0, 8-bit
x264 [info]: frame I:1008 Avg QP:16.65 size: 31977
x264 [info]: frame P:35585 Avg QP:21.02 size: 9949
x264 [info]: frame B:113163 Avg QP:22.94 size: 3023
x264 [info]: consecutive B-frames: 2.2% 2.6% 11.8% 36.4% 18.1% 18.8% 2.2% 2.1% 3.5% 0.2% 0.1% 0.1% 0.1% 0.5% 1.0% 0.1%
x264 [info]: mb I I16..4: 8.0% 66.6% 25.4%
x264 [info]: mb P I16..4: 2.6% 12.1% 3.1% P16..4: 42.1% 17.1% 13.8% 0.8% 0.3% skip: 8.1%
x264 [info]: mb B I16..4: 0.2% 1.1% 0.4% B16..8: 36.4% 9.2% 2.9% direct: 3.5% skip:46.3% L0:42.2% L1:45.5% BI:12.3%
x264 [info]: 8x8 transform intra:66.9% inter:60.4%
x264 [info]: direct mvs spatial:95.7% temporal:4.3%
x264 [info]: coded y,uvDC,uvAC intra: 66.1% 66.2% 36.2% inter: 15.3% 11.1% 4.0%
x264 [info]: i16 v,h,dc,p: 16% 18% 8% 58%
x264 [info]: i8 v,h,dc,ddl,ddr,vr,hd,vl,hu: 12% 9% 9% 8% 12% 12% 13% 11% 14%
x264 [info]: i4 v,h,dc,ddl,ddr,vr,hd,vl,hu: 23% 6% 6% 8% 12% 11% 12% 9% 12%
x264 [info]: i8c dc,h,v,p: 34% 30% 18% 17%
x264 [info]: Weighted P-Frames: Y:8.0% UV:5.5%
x264 [info]: ref P L0: 54.3% 9.4% 13.2% 6.3% 4.5% 3.5% 2.8% 1.7% 1.3% 1.1% 1.0% 0.9% 0.1% 0.0%
x264 [info]: ref B L0: 79.4% 9.9% 4.3% 1.9% 1.4% 1.0% 0.8% 0.5% 0.4% 0.3% 0.1%
x264 [info]: ref B L1: 95.5% 4.5%
x264 [info]: kb/s:932.88
General
Unique ID : 194626161650213205104899475206924934427 (0x926BA2A0F1FBF14CA464D9A0ECC81D1B)
Complete name : How to Train Your Dragon 3 (2019).mkv
Format : Matroska
Format version : Version 4
File size : 746 MiB
Duration : 1 h 44 min
Overall bit rate : 1 002 kb/s
Movie name : Как приручить дракона 3 / How to Train Your Dragon: The Hidden World (2019)
Encoded date : UTC 2019-04-19 08:53:41
Writing application : mkvmerge v8.1.0 ('Psychedelic Postcard') 64bit
Writing library : libebml v1.3.1 + libmatroska v1.4.2
Cover : Yes
Attachments : cover.jpg
Video
ID : 1
Format : AVC
Format/Info : Advanced Video Codec
Format profile : High@L4.1
Format settings : CABAC / 12 Ref Frames
Format settings, CABAC : Yes
Format settings, ReFrames : 12 frames
Codec ID : V_MPEG4/ISO/AVC
Duration : 1 h 44 min
Bit rate : 933 kb/s
Width : 800 pixels
Height : 340 pixels
Display aspect ratio : 2.35:1
Frame rate mode : Constant
Frame rate : 23.976 (24000/1001) FPS
Color space : YUV
Chroma subsampling : 4:2:0
Bit depth : 8 bits
Scan type : Progressive
Bits/(Pixel*Frame) : 0.143
Stream size : 695 MiB (93%)
Title : How to Train Your Dragon: The Hidden World (2019) By optik.1557
Writing library : x264 core 157 r2935 545de2f
Encoding settings : cabac=1 / ref=12 / deblock=1:-2:-1 / analyse=0x3:0x133 / me=umh / subme=10 / psy=1 / psy_rd=1.05:0.01 / mixed_ref=1 / me_range=48 / chroma_me=1 / trellis=2 / 8x8dct=1 / cqm=0 / deadzone=21,11 / fast_pskip=0 / chroma_qp_offset=-2 / threads=6 / lookahead_threads=1 / sliced_threads=0 / nr=0 / decimate=0 / interlaced=0 / bluray_compat=0 / constrained_intra=0 / bframes=15 / b_pyramid=2 / b_adapt=2 / b_bias=0 / direct=3 / weightb=1 / open_gop=0 / weightp=2 / keyint=250 / keyint_min=23 / scenecut=40 / intra_refresh=0 / rc_lookahead=60 / rc=2pass / mbtree=0 / bitrate=933 / ratetol=1.0 / qcomp=0.70 / qpmin=0 / qpmax=69 / qpstep=4 / cplxblur=20.0 / qblur=0.5 / vbv_maxrate=50000 / vbv_bufsize=62500 / nal_hrd=none / filler=0 / ip_ratio=1.40 / pb_ratio=1.30 / aq=3:0.85
Language : English
Default : Yes
Forced : No
Audio
ID : 2
Format : AAC LC SBR
Format/Info : Advanced Audio Codec Low Complexity with Spectral Band Replication
Commercial name : HE-AAC
Format settings : Explicit
Codec ID : A_AAC-2
Duration : 1 h 44 min
Bit rate : 66.2 kb/s
Channel(s) : 2 channels
Channel layout : L R
Sampling rate : 48.0 kHz
Frame rate : 23.438 FPS (2048 SPF)
Compression mode : Lossy
Stream size : 49.7 MiB (7%)
Title : Дубляж. (iTunes)
Language : Russian
Default : Yes
Forced : No
Text #1
ID : 3
Format : UTF-8
Codec ID : S_TEXT/UTF8
Codec ID/Info : UTF-8 Plain Text
Duration : 1 h 32 min
Bit rate : 47 b/s
Count of elements : 1102
Stream size : 32.1 KiB (0%)
Title : Full
Language : English
Default : No
Forced : No
Text #2
ID : 4
Format : UTF-8
Codec ID : S_TEXT/UTF8
Codec ID/Info : UTF-8 Plain Text
Duration : 1 h 32 min
Bit rate : 59 b/s
Count of elements : 1545
Stream size : 40.8 KiB (0%)
Title : SDH#1
Language : English
Default : No
Forced : No
Text #3
ID : 5
Format : UTF-8
Codec ID : S_TEXT/UTF8
Codec ID/Info : UTF-8 Plain Text
Duration : 1 h 43 min
Bit rate : 62 b/s
Count of elements : 1792
Stream size : 48.0 KiB (0%)
Title : SDH#2
Language : English
Default : No
Forced : No
Menu
00:00:00.000 : en:Chapter 1
00:05:13.521 : en:Chapter 2
00:10:26.834 : en:Chapter 3
00:14:52.224 : en:Chapter 4
00:20:33.065 : en:Chapter 5
00:24:38.685 : en:Chapter 6
00:28:40.885 : en:Chapter 7
00:31:10.118 : en:Chapter 8
00:37:35.127 : en:Chapter 9
00:44:38.550 : en:Chapter 10
00:47:53.579 : en:Chapter 11
00:53:11.021 : en:Chapter 12
00:57:36.286 : en:Chapter 13
01:01:25.056 : en:Chapter 14
01:08:55.923 : en:Chapter 15
01:14:17.703 : en:Chapter 16
01:19:31.141 : en:Chapter 17
01:23:23.289 : en:Chapter 18
01:28:24.716 : en:Chapter 19
01:33:53.377 : en:Chapter 20
[opentorrent.pro].t2621.torrent 
Торрент: Зарегистрирован [ 2019-05-08 15:38 ] · 467ECDC2180F98680D9E6ED6741F9B1CD69CC34B

Скачать .torrent

Скачать

15 KB

Статус: проверено
Скачан: 1 раз
Размер: 746 MB  ·  Тип торрента
terms.php
Профиль [ЛС]
Показать сообщения:    

Текущее время: 14-Июл 11:23

Часовой пояс: UTC ± 0



Вы не можете начинать темы
Вы не можете отвечать на сообщения
Вы не можете редактировать свои сообщения
Вы не можете удалять свои сообщения
Вы не можете голосовать в опросах
Вы не можете прикреплять файлы к сообщениям
Вы можете скачивать файлы