Статистика раздачи
Размер:  1,41 GB   |    Зарегистрирован:  1 год 1 месяц   |    Скачан:  0 раз
DL-List: Нет

Полного источника не было: Никогда

 
     
 
 

солнышко ®

Пол:
Не указан
Стаж:
1 год 3 месяца
Сообщений:
723

-Наркокурьер / The Mule-«Nobody Runs Forever»- -Страна: США
Жанр: триллер, драма, криминал, детектив
Год выпуска: 2018
Продолжительность: 01:56:27-Перевод: Профессиональный (дублированный) BD CEE
Субтитры: русские (форсированные)
Оригинальная аудиодорожка: нет-Режиссер: Клинт Иствуд / Clint Eastwood-В ролях: Клинт Иствуд, Брэдли Купер, Таисса Фармига, Элисон Иствуд, Майкл Пенья, Энди Гарсиа, Лоуренс Фишборн, Дайэнн Уист, Игнасио Серричио, Джилл Флинт-Описание: Эрл Стоун - одинокий старик. Его частный бизнес находится на грани разорения, отношения с женой не ладятся, а дети, кажется, давно забыли о его существовании. Неожиданно ему предлагают непыльную, но прибыльную работенку - просто водить машину. Стоун поначалу соглашается и вскоре понимает, что стал наркокурьером мексиканского картеля и попал в поле зрения оперативника Агентства по контролю за оборотом наркотиков.- - -Качество видео: BDRip-AVC / The.Mule.2018.BluRay.REMUX.1080p.AVC.DTS-HD.MA5.1-iFT
Формат видео: MKV-Видео: MPEG-4 AVC, 916x384 (2.40:1), 23.976 fps, ~1246 kbps avg, 0.148 bit/pixel
Аудио: 48 kHz, AC3 Dolby Digital, 3/2 (L,C,R,l,r) + LFE ch, ~448 kbps avg-

MediaInfo

Код:Complete name : D:\Раздача\Наркокурьер (2018) BDRip-AVC__ivanes.mkv
Format : Matroska
Format version : Version 2
File size : 1.41 GiB
Duration : 1 h 56 min
Overall bit rate : 1 728 kb/s
Movie name : Наркокурьер (2018) BDRip-AVC__ivanes
Encoded date : UTC 2019-05-14 21:36:07
Writing application : mkvmerge v4.4.0 ('Die Wiederkehr') сборка от Jan 3 2011 21:40:45
Writing library : libebml v1.0.0 + libmatroska v1.0.0
Cover : Yes
Attachments : cover.jpg
Video
ID : 1
Format : AVC
Format/Info : Advanced Video Codec
Format profile : High@L4.1
Format settings, CABAC : Yes
Format settings, RefFrames : 14 frames
Codec ID : V_MPEG4/ISO/AVC
Duration : 1 h 56 min
Bit rate : 1 246 kb/s
Width : 916 pixels
Height : 384 pixels
Display aspect ratio : 2.40:1
Frame rate mode : Constant
Frame rate : 23.976 (24000/1001) FPS
Color space : YUV
Chroma subsampling : 4:2:0
Bit depth : 8 bits
Scan type : Progressive
Bits/(Pixel*Frame) : 0.148
Stream size : 1.01 GiB (72%)
Title : Rip by ivanes
Writing library : x264 core 157 r2969 d4099dd
Encoding settings : cabac=1 / ref=14 / deblock=1:-3:-3 / analyse=0x3:0x113 / me=umh / subme=10 / psy=1 / psy_rd=1.00:0.00 / mixed_ref=1 / me_range=32 / chroma_me=1 / trellis=2 / 8x8dct=1 / cqm=0 / deadzone=21,11 / fast_pskip=0 / chroma_qp_offset=-2 / threads=12 / lookahead_threads=3 / sliced_threads=0 / nr=0 / decimate=1 / interlaced=0 / bluray_compat=0 / constrained_intra=0 / bframes=14 / b_pyramid=2 / b_adapt=2 / b_bias=0 / direct=1 / weightb=1 / open_gop=0 / weightp=2 / keyint=240 / keyint_min=23 / scenecut=40 / intra_refresh=0 / rc_lookahead=60 / rc=crf / mbtree=0 / crf=17.4 / qcomp=0.60 / qpmin=0 / qpmax=69 / qpstep=4 / vbv_maxrate=50000 / vbv_bufsize=62500 / crf_max=0.0 / nal_hrd=none / filler=0 / ip_ratio=1.40 / pb_ratio=1.30 / aq=1:1.00
Default : Yes
Forced : No
Statistics Tags Issue : mkvmerge v10.0.0 ('To Drown In You') 64bit 2019-05-14 21:33:34 / mkvmerge v4.4.0 ('Die Wiederkehr') сборка от Jan 3 2011 21:40:45 2019-05-14 21:36:07
FromStats_BitRate : 1278342
FromStats_Duration : 01:56:27.522000000
FromStats_FrameCount : 167533
FromStats_StreamSize : 1116556033
Audio
ID : 2
Format : AC-3
Format/Info : Audio Coding 3
Format settings, Endianness : Big
Codec ID : A_AC3
Duration : 1 h 56 min
Bit rate mode : Constant
Bit rate : 448 kb/s
Channel(s) : 6 channels
Channel positions : Front: L C R, Side: L R, LFE
Sampling rate : 48.0 kHz
Frame rate : 31.250 FPS (1536 SPF)
Bit depth : 16 bits
Compression mode : Lossy
Stream size : 373 MiB (26%)
Title : BD CEE
Language : Russian
Service kind : Complete Main
Default : Yes
Forced : No
Text
ID : 3
Format : UTF-8
Codec ID : S_TEXT/UTF8
Codec ID/Info : UTF-8 Plain Text
Title : Forced
Language : Russian
Default : Yes
Forced : No

Скриншоты

[opentorrent.pro].t2833.torrent 
Торрент: Зарегистрирован [ 2019-05-15 16:23 ] · 0D3B4E2E7CCA9181D8C65D85D7B137C28DA77918

Скачать .torrent

Скачать

15 KB

Статус: проверено
Скачан: 0 раз
Размер: 1,41 GB  ·  Тип торрента
terms.php
Профиль [ЛС]
Показать сообщения:    

Текущее время: 04-Июл 18:42

Часовой пояс: UTC ± 0



Вы не можете начинать темы
Вы не можете отвечать на сообщения
Вы не можете редактировать свои сообщения
Вы не можете удалять свои сообщения
Вы не можете голосовать в опросах
Вы не можете прикреплять файлы к сообщениям
Вы можете скачивать файлы