Статистика раздачи
Размер:  1,47 GB   |    Зарегистрирован:  1 год 2 месяца   |    Скачан:  0 раз
DL-List: Нет

Полного источника не было: Никогда

 
     
 
 

serzh ®

Пол:
Не указан
Стаж:
1 год 4 месяца
Сообщений:
442

Оружие, время, мотив / L'arma, l'ora, il movente
Страна: Италия
Жанр: триллер
Год выпуска: 1972
Продолжительность: 01:40:14
Перевод: Авторский (одноголосый закадровый) Владимир Штейн
Субтитры: нет
Оригинальная аудиодорожка: итальянский
Режиссер: Франческо Мадзеи / Francesco Mazzei
В ролях: Ренцо Монтаньяни / Renzo Montagnani, Беди Моратти / Bedy Moratti, Ева Чемерис / Eva Czemerys, Сальваторе Пунтильо / Salvatore Puntillo, Клаудия Грави / Claudia Gravy, Артуро Трина / Arturo Trina Адольфо Беллетти / Adolfo Belletti, Джина Маскетти / Gina Mascetti и др.
Описание: Священника, испытывавшего слабость к женскому полу, находят мёртвым. Одна из подозреваемых вскоре совершает самоубийство, и полиция закрывает дело, приняв её суицид за раскаяние. Но паренёк-сирота, ставший случайным свидетелем убийства священника, утверждает обратное...
Доп. информация: https://www.imdb.com/title/tt0069730/
Перевод - Владимир Штейн 2019
Сведение звука - Diablo
Сэмпл: http://multi-up.com/1232180
Качество видео: DVDRip
Формат видео: AVI
Видео: XviD, 720x400 (16:9), 25.000 fps, 1696 kbps
Аудио: AC3, 48000 Hz, 2 ch, 192 kbps (русский)
Аудио 2: AC3, 48000 Hz, 2 ch, 192 kbps (итальянский)

MediaInfo

General
Complete name : I:\Рутрекер\The Weapon, the Hour & the Motive (1972).avi
Format : AVI
Format/Info : Audio Video Interleave
File size : 1.47 GiB
Duration : 1h 40mn
Overall bit rate : 2 095 Kbps
Writing application : VirtualDubMod 1.5.10.2 (build 2542/release)
Writing library : VirtualDubMod build 2542/release
Video
ID : 0
Format : MPEG-4 Visual
Format profile : Advanced Simple@L5
Format settings, BVOP : 1
Format settings, QPel : No
Format settings, GMC : No warppoints
Format settings, Matrix : Default (MPEG)
Codec ID : XVID
Codec ID/Hint : XviD
Duration : 1h 40mn
Bit rate : 1 696 Kbps
Width : 720 pixels
Height : 400 pixels
Display aspect ratio : 16:9
Frame rate : 25.000 fps
Color space : YUV
Chroma subsampling : 4:2:0
Bit depth : 8 bits
Scan type : Progressive
Compression mode : Lossy
Bits/(Pixel*Frame) : 0.236
Stream size : 1.19 GiB (81%)
Writing library : XviD 1.2.1 (UTC 2008-12-04)
Audio #1
ID : 1
Format : AC-3
Format/Info : Audio Coding 3
Mode extension : CM (complete main)
Format settings, Endianness : Big
Codec ID : 2000
Duration : 1h 40mn
Bit rate mode : Constant
Bit rate : 192 Kbps
Channel(s) : 2 channels
Channel positions : Front: L R
Sampling rate : 48.0 KHz
Bit depth : 16 bits
Compression mode : Lossy
Stream size : 138 MiB (9%)
Alignment : Split accross interleaves
Interleave, duration : 40 ms (1.00 video frame)
Interleave, preload duration : 500 ms
Audio #2
ID : 2
Format : AC-3
Format/Info : Audio Coding 3
Mode extension : CM (complete main)
Format settings, Endianness : Big
Codec ID : 2000
Duration : 1h 40mn
Bit rate mode : Constant
Bit rate : 192 Kbps
Channel(s) : 2 channels
Channel positions : Front: L R
Sampling rate : 48.0 KHz
Bit depth : 16 bits
Compression mode : Lossy
Stream size : 138 MiB (9%)
Alignment : Split accross interleaves
Interleave, duration : 40 ms (1.00 video frame)
Interleave, preload duration : 500 ms

Скриншот c названием фильма

[opentorrent.pro].t2859.torrent 
Торрент: Зарегистрирован [ 2019-05-16 16:49 ] · 9B158202A776544144542B852DCE9FFBF6D0EB4E

Скачать .torrent

Скачать

15 KB

Статус: проверено
Скачан: 0 раз
Размер: 1,47 GB  ·  Тип торрента
terms.php
Профиль [ЛС]
Показать сообщения:    

Текущее время: 04-Авг 07:51

Часовой пояс: UTC ± 0



Вы не можете начинать темы
Вы не можете отвечать на сообщения
Вы не можете редактировать свои сообщения
Вы не можете удалять свои сообщения
Вы не можете голосовать в опросах
Вы не можете прикреплять файлы к сообщениям
Вы можете скачивать файлы