Статистика раздачи
Размер:  2,04 GB   |    Зарегистрирован:  1 год 2 месяца   |    Скачан:  0 раз
DL-List: Нет

Полного источника не было: Никогда

 
     
 
 

serzh ®

Пол:
Не указан
Стаж:
1 год 5 месяцев
Сообщений:
442

Дикая орхидея / Wild Orchid / Полная версия
Страна: США
Жанр: мелодрама, драма, эротика
Год выпуска: 1989
Продолжительность: 01:51:36
Перевод: Одноголосый закадровый МП "Мега"
Субтитры: нет
Оригинальная аудиодорожка: английский
Режиссер: Залман Кинг / Zalman King
В ролях: Микки Рурк, Жаклин Биссет, Карре Отис, Ассумпта Серна, Брюс Гринвуд, Олег Видов,
Милтон Гонсалвеш, Дженс Питер, Антониу Мариу Силва да Силва, Пол Лэнд
Описание: Поступив на работу в юридическую фирму, Эмилия отправляется в Бразилию помочь
завершить крупную сделку с недвижимостью. В Рио-де-Жанейро она встречается с Виллером —
загадочным и очень сексуальным миллионером, который, используя свое колдовское очарование,
пытается соблазнить невинную красотку.
Под сумасшедшие ритмы и краски карнавала, он распаляет в девушке вулкан неведомых ей ранее
чувств и эротических фантазий, так и не решаясь на активные действия. Для него это привычная
игра в любовь, но Эмилия не хочет и не может играть, она искренна, и это заставляет Виллера
открыть ей свое сердце…
Доп. информация: Дорожка с VO синхронизирована и наложена ale_x2008 при помощи Sony Vegas и VirtualDubMod.
За оцифрованную с VHS дорожку благодарим - Mixa_12345_mixa

Релиз
Сэмпл: https://yadi.sk/i/AUWikanHOhGjVw
Качество видео: HDRip
Формат видео: AVI
Видео: XviD build 73, 704x384 (1.83:1), 23.976 fps, 2208 kbps avg, 0.34 bit/pixel
Аудио: AC3 Dolby Digital, 48000Hz 2/0 (L,R) ch (mono), 192 kbps avg
Аудио 2: AC3 Dolby Digital, 48000Hz 2/0 (L,R) ch, 192 kbps avg

MediaInfo

Дикая орхидея - Wild Orchid (by ale_x2008).avi
Format : AVI
Format/Info : Audio Video Interleave
Format profile : OpenDML
File size : 2.04 GiB
Duration : 1 h 51 min
Overall bit rate : 2 612 kb/s
Movie name : Дикая орхидея - Wild Orchid (1989)
Director : by ale_x2008
Writing application : VirtualDubMod 1.5.10.2 (build 2540/release)
Copyright : Edich2
Comment : Rutracker.org
Video
ID : 0
Format : MPEG-4 Visual
Format profile : Advanced Simple@L5
Format settings : BVOP2 / Custom Matrix
Format settings, BVOP : 2
Format settings, QPel : No
Format settings, GMC : No warppoints
Format settings, Matrix : Custom
Codec ID : XVID
Codec ID/Hint : XviD
Duration : 1 h 51 min
Bit rate : 2 209 kb/s
Width : 704 pixels
Height : 384 pixels
Display aspect ratio : 1.85:1
Frame rate : 23.976 (24000/1001) FPS
Original frame rate : 23.976 (23976/1000) FPS
Color space : YUV
Chroma subsampling : 4:2:0
Bit depth : 8 bits
Scan type : Progressive
Compression mode : Lossy
Bits/(Pixel*Frame) : 0.341
Stream size : 1.72 GiB (85%)
Writing library : XviD 73
Audio #1
ID : 1
Format : AC-3
Format/Info : Audio Coding 3
Codec ID : 2000
Duration : 1 h 51 min
Bit rate mode : Constant
Bit rate : 192 kb/s
Channel(s) : 2 channels
Channel positions : Front: L R
Sampling rate : 48.0 kHz
Frame rate : 31.250 FPS (1536 SPF)
Bit depth : 16 bits
Compression mode : Lossy
Stream size : 153 MiB (7%)
Alignment : Split accross interleaves
Interleave, duration : 42 ms (1.00 video frame)
Interleave, preload duratio : 500 ms
Service kind : Complete Main
Audio #2
ID : 2
Format : AC-3
Format/Info : Audio Coding 3
Codec ID : 2000
Duration : 1 h 51 min
Bit rate mode : Constant
Bit rate : 192 kb/s
Channel(s) : 2 channels
Channel positions : Front: L R
Sampling rate : 48.0 kHz
Frame rate : 31.250 FPS (1536 SPF)
Bit depth : 16 bits
Compression mode : Lossy
Stream size : 153 MiB (7%)
Alignment : Split accross interleaves
Interleave, duration : 42 ms (1.00 video frame)
Interleave, preload duratio : 500 ms
Service kind : Complete Main

Скриншоты


[opentorrent.pro].t2906.torrent 
Торрент: Зарегистрирован [ 2019-05-18 15:44 ] · C7BF245ADC812574FEDA5060E0E8A7154D153FE7

Скачать .torrent

Скачать

11 KB

Статус: проверено
Скачан: 0 раз
Размер: 2,04 GB  ·  Тип торрента
terms.php
Профиль [ЛС]
Показать сообщения:    

Текущее время: 12-Авг 15:43

Часовой пояс: UTC ± 0



Вы не можете начинать темы
Вы не можете отвечать на сообщения
Вы не можете редактировать свои сообщения
Вы не можете удалять свои сообщения
Вы не можете голосовать в опросах
Вы не можете прикреплять файлы к сообщениям
Вы можете скачивать файлы