Статистика раздачи
Размер:  797 MB   |    Зарегистрирован:  1 год   |    Скачан:  0 раз
DL-List: Нет

Полного источника не было: Никогда

 
     
 
 

Гость ®

Пол:
Не указан

-Толя-робот-- -Год выпуска: 2019
Производство: ТНТ-PREMIER Studios, Droog Dro
Жанр: драма, комедия
Продолжительность: ~00:48:00
Субтитры: Нет-Режиссёр: Алексей Нужный-В ролях: Александр Паль, Евгений Кулик, Маргарита Аброськина, Валентина Мазунина, Азамат Мусагалиев, Александр Никольский, Фёдор Инсаров, Михаил Орлов, Евгений Коряковский, Екатерина Директоренко, Елена Валюшкина, Сергей Стёпин, Юлия Гришаева, Максим Костромыкин, Максим Фадеев, Ольга Серябкина-Описание: Толя — молодой провинциальный парень без рук и ног, который оказывается более сильным, жизнелюбивым и оптимистичным, чем окружающие его люди с руками и ногами. Обретя бионические протезы, он начинает жить на полную катушку: борется за лучшую девушку в своём городе, организует ТСЖ и отстаивает свой дом, включается в жизнь своих близких и увлекает их за собой — к свету и мечте.-Предыдущие и альтернативные раздачи-Реклама: Нет- - -Качество: WEBRip-AVC / WEBRip 1080p
Формат: MKV
Видео кодек: H.264
Аудио кодек: AC3-Видео: MPEG-4 AVC, 768x326 (2.35:1), 25.000 fps, ~1000 kbps avg, 0.160 bit/pixel
Аудио: 48 kHz, AC3 Dolby Digital, 2/0 (L,R) ch, ~192 kbps avg-

MediaInfo

Код:Complete name : D:\Раздача\Толя-робот (2019)\01 - Толя-робот (2019) WEBRip-AVC_ivanes.mkv
Format : Matroska
Format version : Version 2
File size : 409 MiB
Duration : 47 min 54 s
Overall bit rate : 1 194 kb/s
Movie name : 01 - Толя-робот (2019) WEBRip-AVC_ivanes
Encoded date : UTC 2019-05-21 18:16:27
Writing application : mkvmerge v4.4.0 ('Die Wiederkehr') сборка от Jan 3 2011 21:40:45
Writing library : libebml v1.0.0 + libmatroska v1.0.0
Cover : Yes
Attachments : cover.jpg
Video
ID : 1
Format : AVC
Format/Info : Advanced Video Codec
Format profile : High@L4.1
Format settings, CABAC : Yes
Format settings, RefFrames : 10 frames
Codec ID : V_MPEG4/ISO/AVC
Duration : 47 min 54 s
Bit rate : 1 000 kb/s
Width : 768 pixels
Height : 326 pixels
Display aspect ratio : 2.35:1
Frame rate mode : Constant
Frame rate : 25.000 FPS
Color space : YUV
Chroma subsampling : 4:2:0
Bit depth : 8 bits
Scan type : Progressive
Bits/(Pixel*Frame) : 0.160
Stream size : 335 MiB (82%)
Title : Rip by ivanes
Writing library : x264 core 157 r2969 d4099dd
Encoding settings : cabac=1 / ref=10 / deblock=1:-3:-3 / analyse=0x3:0x113 / me=umh / subme=8 / psy=1 / psy_rd=1.00:0.00 / mixed_ref=1 / me_range=32 / chroma_me=1 / trellis=2 / 8x8dct=1 / cqm=0 / deadzone=21,11 / fast_pskip=0 / chroma_qp_offset=-2 / threads=12 / lookahead_threads=2 / sliced_threads=0 / nr=0 / decimate=1 / interlaced=0 / bluray_compat=0 / constrained_intra=0 / bframes=10 / b_pyramid=2 / b_adapt=2 / b_bias=0 / direct=1 / weightb=1 / open_gop=0 / weightp=2 / keyint=250 / keyint_min=25 / scenecut=40 / intra_refresh=0 / rc_lookahead=60 / rc=2pass / mbtree=0 / bitrate=1000 / ratetol=1.0 / qcomp=0.60 / qpmin=0 / qpmax=69 / qpstep=4 / cplxblur=20.0 / qblur=0.5 / vbv_maxrate=50000 / vbv_bufsize=62500 / nal_hrd=none / filler=0 / ip_ratio=1.40 / pb_ratio=1.30 / aq=1:1.00
Default : Yes
Forced : No
Statistics Tags Issue : mkvmerge v10.0.0 ('To Drown In You') 64bit 2019-05-21 18:14:57 / mkvmerge v4.4.0 ('Die Wiederkehr') сборка от Jan 3 2011 21:40:45 2019-05-21 18:16:27
FromStats_BitRate : 999725
FromStats_Duration : 00:47:54.000000000
FromStats_FrameCount : 71850
FromStats_StreamSize : 359151389
Audio
ID : 2
Format : AC-3
Format/Info : Audio Coding 3
Format settings, Endianness : Big
Codec ID : A_AC3
Duration : 47 min 54 s
Bit rate mode : Constant
Bit rate : 192 kb/s
Channel(s) : 2 channels
Channel positions : Front: L R
Sampling rate : 48.0 kHz
Frame rate : 31.250 FPS (1536 SPF)
Bit depth : 16 bits
Compression mode : Lossy
Stream size : 65.8 MiB (16%)
Language : Russian
Service kind : Complete Main
Default : Yes
Forced : No

Скриншоты

[opentorrent.pro].t3003.torrent 
Торрент: Зарегистрирован [ 2019-05-22 17:23 ] · 74371009655EAC086B60DE7D574416A74809FA09

Скачать .torrent

Скачать

16 KB

Статус: проверено
Скачан: 0 раз
Размер: 797 MB  ·  Тип торрента
terms.php
Показать сообщения:    

Текущее время: 03-Июн 00:09

Часовой пояс: UTC ± 0



Вы не можете начинать темы
Вы не можете отвечать на сообщения
Вы не можете редактировать свои сообщения
Вы не можете удалять свои сообщения
Вы не можете голосовать в опросах
Вы не можете прикреплять файлы к сообщениям
Вы можете скачивать файлы