Статистика раздачи
Размер:  1,37 GB   |    Зарегистрирован:  1 год 2 месяца   |    Скачан:  0 раз
DL-List: Нет

Полного источника не было: Никогда

 
     
 
 

karlll ®

Пол:
Не указан
Стаж:
1 год 4 месяца
Сообщений:
196

Белки в деле / Get Squirrely
Страна: США
Жанр: мультфильм, комедия, семейный
Год выпуска: 2015
Продолжительность: 01:18:45-Перевод: Профессиональный (дублированный)
Субтитры: нет
Оригинальная аудиодорожка: нет-Режиссер:
Росс Венокур / Ross Venokur-В ролях:
Джейсон Джонс, Уилл Форте, Джон Легуизамо, Саманта Би, Виктория Джастис, Джон Клиз, Дэвид Берни, Джон Клилэнд, Джим Каммингс, Джереми Харрис-Описание:
В лесу случилась беда! Пронырливые дельцы из города решили, что желуди послужат отличной основой для нового Чудо-крема. Они приехали в лес на железных машинах, собрали все желуди и оставили всех лесных жителей на зиму без еды!
Но отважная белка Фрэнки, знает, что нужно делать! Он собирает суперкоманду своих друзей — дикобраза Коди, летучую мышь Лиама, Змею Рэйтч, Ящерицу Эдси и Белку-летягу Лолу, вместе с ними он должен пробраться на фабрику где хранятся желуди и вернуть их!-Качество видео: WEBRip
Формат видео: AVI
Видео: 704x400 (1.76:1), 25 fps, XviD build 73 ~2283 kbps avg, 0.32 bit/pixel
Аудио: 48 kHz, AC3 Dolby Digital, 2/0 (L,R) ch, ~192 kbps-Сэмпл-

MediaInfo

Код:Формат : AVI
Формат/Информация : Audio Video Interleave
Размер файла : 1,37 Гбайт
Продолжительность : 1 ч. 18 м.
Общий поток : 2485 Кбит/сек
Название фильма : Белки в деле_2015_WEBRip
Программа кодирования : VirtualDubMod 1.5.10.3 | www.virtualdub-fr.org || (build 2550/release)
Авторское право : порошков
Видео
Идентификатор : 0
Формат : MPEG-4 Visual
Профиль формата : Advanced Simple@L5
Настройки формата : BVOP1 / Custom Matrix
Параметр BVOP формата : 1
Параметр QPel формата : Нет
Параметр GMC формата : Без точки перехода
Параметр матрицы формата : Выборочная
Идентификатор кодека : XVID
Идентификатор кодека/Подсказка : XviD
Продолжительность : 1 ч. 18 м.
Битрейт : 2284 Кбит/сек
Ширина : 704 пикселя
Высота : 400 пикселей
Соотношение сторон : 16:9
Частота кадров : 25,000 кадров/сек
Цветовое пространство : YUV
Субдискретизация насыщенности : 4:2:0
Битовая глубина : 8 бит
Тип развёртки : Прогрессивная
Метод сжатия : С потерями
Бит/(Пиксели*Кадры) : 0.324
Размер потока : 1,26 Гбайт (92%)
Библиотека кодирования : XviD 73
Аудио
Идентификатор : 1
Формат : AC-3
Формат/Информация : Audio Coding 3
Коммерческое название : Dolby Digital
Идентификатор кодека : 2000
Продолжительность : 1 ч. 18 м.
Вид битрейта : Постоянный
Битрейт : 192 Кбит/сек
Каналы : 2 канала
ChannelLayout : L R
Частота : 48,0 КГц
Частота кадров : 31,250 кадров/сек (1536 SPF)
Битовая глубина : 16 бит
Метод сжатия : С потерями
Размер потока : 108 Мбайт (8%)
Выравнивание : Разделение по промежуткам
Продолжительность промежутка : 40 мс. (1,00 видеокадр)
Время предзагрузки промежутка : 500 мс.
ServiceKind/String : Complete Main

Скриншоты


[opentorrent.pro].t3113.torrent 
Торрент: Зарегистрирован [ 2019-05-25 16:38 ] · 31E504C77E78D46029E3D2AE690AF993DAFEA9BB

Скачать .torrent

Скачать

14 KB

Статус: проверено
Скачан: 0 раз
Размер: 1,37 GB  ·  Тип торрента
terms.php
Профиль [ЛС]
Показать сообщения:    

Текущее время: 05-Авг 10:10

Часовой пояс: UTC ± 0



Вы не можете начинать темы
Вы не можете отвечать на сообщения
Вы не можете редактировать свои сообщения
Вы не можете удалять свои сообщения
Вы не можете голосовать в опросах
Вы не можете прикреплять файлы к сообщениям
Вы можете скачивать файлы