Статистика раздачи
Размер:  1,36 GB   |    Зарегистрирован:  1 год   |    Скачан:  0 раз
DL-List: Нет

Полного источника не было: Никогда

 
     
 
 

serzh ®

Пол:
Не указан
Стаж:
1 год 2 месяца
Сообщений:
442

Белый Клык и одинокий охотник / Zanna Bianca e il cacciatore solitario
Страна: Италия
Жанр: вестерн, приключения
Год выпуска: 1975
Продолжительность: 01:31:50
Перевод: Одноголосый закадровый Вадим Назаров
Субтитры: нет
Режиссер: Альфонсо Брешиа / Alfonso Brescia
В ролях: Роберт Вудс, Игнацио Спалла, Франко Лантьери, Малиса Лонго, Франко Лантиери, Линда Сини, Омеро Капанна, Амедео Тимпани
Описание: Отважный пес Белый Клык, его хозяин, траппер Дэниел, и приятель Дэниела бесшабашный Педро сражаются со стаей волков посреди заснеженных лесов и спасают молодую вдову, хозяйку земельного надела, от брачных притязаний богатого негодяя....
Сэмпл: http://multi-up.com/1232817
Качество видео: DVDRip (Исходник - DVD9)
Формат видео: AVI
Видео: XviD 73, 688x336, (2,04:1), 25,000 fps, 1919 Кбит/с, 8 бит, 0.33 bit/pixel
Аудио: Русский (АС3, 2 ch (Front: L R), 48,0 KHz, 192 Kbps)

MediaInfo

Общее
Полное имя : F:\Дороги\СДЕЛАТЬ\Белый Клык и одинокий охотник (вестерн, приключения 1975 год).avi
Формат : AVI
Формат/Информация : Audio Video Interleave
Размер файла : 1,36 Гбайт
Продолжительность : 1 ч. 31 м.
Общий поток : 2121 Кбит/сек
Программа кодирования : VirtualDubMod 1.5.10.2 (build 2540/release)
Библиотека кодирования : VirtualDubMod build 2540/release
Видео
Идентификатор : 0
Формат : MPEG-4 Visual
Профиль формата : Advanced Simple@L5
Параметр BVOP формата : 2
Параметр QPel формата : Нет
Параметр GMC формата : Без точки перехода
Параметр матрицы формата : Выборочная
Идентификатор кодека : XVID
Идентификатор кодека/Подсказка : XviD
Продолжительность : 1 ч. 31 м.
Битрейт : 1919 Кбит/сек
Ширина : 688 пикселей
Высота : 336 пикселей
Соотношение сторон : 2,048
Частота кадров : 25,000 кадров/сек
Цветовое пространство : YUV
Субдискретизация насыщенности : 4:2:0
Битовая глубина : 8 бит
Тип развёртки : Прогрессивная
Метод сжатия : С потерями
Бит/(Пиксели*Кадры) : 0.332
Размер потока : 1,23 Гбайт (90%)
Библиотека кодирования : XviD 73
Аудио
Идентификатор : 1
Формат : AC-3
Формат/Информация : Audio Coding 3
Расширение режима : CM (complete main)
Параметр Endianness формата : Big
Идентификатор кодека : 2000
Продолжительность : 1 ч. 31 м.
Вид битрейта : Постоянный
Битрейт : 192 Кбит/сек
Каналы : 2 канала
Расположение каналов : Front: L R
Частота : 48,0 КГц
Частота кадров : 31,250 кадров/сек (1536 spf)
Метод сжатия : С потерями
Размер потока : 126 Мбайт (9%)
Выравнивание : Разделение по промежуткам
Продолжительность промежутка : 40 мс. (1,00 видеокадр)
Время предзагрузки промежутка : 500 мс.

Скриншот c названием фильма

Скриншоты

[opentorrent.pro].t3118.torrent 
Торрент: Зарегистрирован [ 2019-05-25 16:38 ] · 077332760C5C03EAF5BA7A1550A1F2EC07563EB0

Скачать .torrent

Скачать

14 KB

Статус: проверено
Скачан: 0 раз
Размер: 1,36 GB  ·  Тип торрента
terms.php
Профиль [ЛС]
Показать сообщения:    

Текущее время: 30-Май 15:15

Часовой пояс: UTC ± 0



Вы не можете начинать темы
Вы не можете отвечать на сообщения
Вы не можете редактировать свои сообщения
Вы не можете удалять свои сообщения
Вы не можете голосовать в опросах
Вы не можете прикреплять файлы к сообщениям
Вы можете скачивать файлы