Статистика раздачи
Размер:  2,34 GB   |    Зарегистрирован:  1 год 2 месяца   |    Скачан:  0 раз
DL-List: Нет
Сидов:  26  [  0 KB/s  ]   Личеров:  2  [  0 KB/s  ]  
 
     
 
 

Гость ®

Пол:
Не указан

Старая гвардия
Год выпуска: 2019
Производство: Россия, ТелеМастер, Приор продакшн
Жанр: Детектив, мелодрама
Продолжительность: 4 x ~ 00:46:00
Субтитры: Отсутствуют
Режиссёр: Наталья Хлопецкая
В ролях: Катерина Шпица, Вадим Андреев, Анатолий Лобоцкий, Алёна Хмельницкая, Вера Воронкова, Владимир Демидов
Описание: Ведя дело об аварии со смертельным исходом, молодой следователь Вера допускает ошибку, которая может стоить ей карьеры. Стремясь спасти свою протеже от увольнения, подполковник Александра Романова дает Вере другое дело: убийство королевы красоты, совершенное почти 15 лет назад. Чтобы помочь Веронике в расследовании, Романова дает ей в подчинение двух консультантов-пенсионеров: бывалого оперативника Федора Анатольевича Бобрыкина и гениального криминалиста Григория Петровича Сапронова. Эти мастодонты сыска плохо знакомы с современными методами и технологиями, зато хорошо знают подробности дела – ведь именно они вели его в прошлом. Командовать ветеранами трудно, найти с ними общий язык еще труднее, слишком уж они разные. Объединяет их только давнее соперничество: оба они уже не один десяток лет влюблены в подполковника Романову. Ну, и дружба, разумеется. Намучавшись с неуступчивыми, порой сварливыми и острыми на язык «дедушками», Вера прикипит к ним всей душой, заслужит их уважение и составит с ними отличную команду.
Реклама: Отсутствует
Сэмпл: http://multi-up.com/1232848
Качество: SATRip
Формат: AVI
Видео кодек: XviD
Аудио кодек: MP3
Видео: XviD, ~ 1520 Кбит/с, 720x400, 0.210 bit/pixel
Аудио: MP3, 2 ch, 192 Кбит/с

MI

Общее
Полное имя : E:\Старая.Гвардия.2019.XviD.SATRip\01.Старая.Гвардия.avi
Формат : AVI
Формат/Информация : Audio Video Interleave
Размер файла : 600 Мбайт
Продолжительность : 48 м. 57 с.
Общий поток : 1713 Кбит/сек
Программа кодирования : VirtualDubMod 1.5.10.3 | www.virtualdub-fr.org || (build 2550/release)
Библиотека кодирования : VirtualDubMod build 2550/release
Видео
Идентификатор : 0
Формат : MPEG-4 Visual
Профиль формата : Advanced Simple@L5
Настройки формата : BVOP1
Параметр BVOP формата : 1
Параметр QPel формата : Нет
Параметр GMC формата : Без точки перехода
Параметр матрицы формата : Default (MPEG)
Идентификатор кодека : XVID
Идентификатор кодека/Подсказка : XviD
Продолжительность : 48 м. 57 с.
Битрейт : 1512 Кбит/сек
Ширина : 720 пикселей
Высота : 400 пикселей
Соотношение сторон : 16:9
Частота кадров : 25,000 кадров/сек
Цветовое пространство : YUV
Субдискретизация насыщенности : 4:2:0
Битовая глубина : 8 бит
Тип развёртки : Прогрессивная
Бит/(Пиксели*Кадры) : 0.210
Размер потока : 529 Мбайт (88%)
Библиотека кодирования : XviD 73
Аудио
Идентификатор : 1
Формат : MPEG Audio
Версия формата : Version 1
Профиль формата : Layer 3
Настройки формата : Joint stereo
Идентификатор кодека : 55
Идентификатор кодека/Подсказка : MP3
Продолжительность : 48 м. 57 с.
Вид битрейта : Постоянный
Битрейт : 192 Кбит/сек
Каналы : 2 канала
Частота : 48,0 КГц
Частота кадров : 41,667 кадра/сек (1152 SPF)
Размер потока : 67,2 Мбайт (11%)
Выравнивание : Соединение по промежуткам
Продолжительность промежутка : 40 мс. (1,00 видеокадр)
Время предзагрузки промежутка : 504 мс.
Библиотека кодирования : LAME3.99r
Настройки программы : -m j -V 4 -q 2 -lowpass 18.6 -b 192

Скриншоты

Предыдущие и альтернативные раздачи
[opentorrent.pro].t3129.torrent 
Торрент: Зарегистрирован [ 2019-05-26 17:05 ] · E6B6A7CEE48BD4A4C057BA31A30C0A0D99317FFE

Скачать .torrent

Скачать

13 KB

Статус: проверено
Скачан: 0 раз
Размер: 2,34 GB  ·  Тип торрента
terms.php
Показать сообщения:    

Текущее время: 07-Авг 03:53

Часовой пояс: UTC ± 0



Вы не можете начинать темы
Вы не можете отвечать на сообщения
Вы не можете редактировать свои сообщения
Вы не можете удалять свои сообщения
Вы не можете голосовать в опросах
Вы не можете прикреплять файлы к сообщениям
Вы можете скачивать файлы