Статистика раздачи
Размер:  2,14 GB   |    Зарегистрирован:  1 год 2 месяца   |    Скачан:  0 раз
DL-List: Нет

Полного источника не было: Никогда

 
     
 
 

serzh ®

Пол:
Не указан
Стаж:
1 год 4 месяца
Сообщений:
442

Мой друг с холодным носом / К-9: Собачья работа
К-9 / Mein Partner mit der kalten Schnauze

Страна: США
Жанр: комедия
Год выпуска: 1989
Продолжительность: 01:41:23
Перевод 1: Одноголосый закадровый неизвестного Немца
Перевод 2: Авторский (одноголосый закадровый) Андрея Гаврилова раннего
Субтитры: нет
Оригинальная аудиодорожка: английский
Режиссер: Род Дэниэл /Rod Daniel/
В ролях: Джеймс Белуши /James Belushi/, Мел Харрис /Mel Harris/, Кевин Тиг /Kevin Tighe/, Эд О'Нилл /Ed O'Neill/, Джерри Ли /Jerry Lee/, Джеймс Хэнди /James Handy/
Рецензия Михаила Иванова: Томас Дули (Белуши), полицейский из отдела по борьбе с наркотиками, выходит на след Лаймана, крупного торговца этой дрянью. Партнером Дули становится К-9, овчарка из учебного центра Сан-Диего. Собака умна до чрезвычайности и обладает замечательным нюхом. Есть и недостатки - ревнива к женщинам. Погони, перестрелки, комические ситуации, смертельные опасности - и в конце верный Мухтар, получив пулю, притворяется мертвым, но оживает на радость всем. Все трое (собака, полицейский и его возлюбленная) уезжают отдыхать, разоблачив злодеев. Очень удачная комедия.
Доп. информация: исходник от pirs18; Немца оцифровал и подготовил karlll
Качество видео: BDRip-AVC ~СЭМПЛ~
Формат видео: MKV
Видео: MPEG4 Video (H264) 1152x624 23.976fps 2443Kbps
Аудио 1: Dolby AC3 48KHz 2ch 192Kbps - Н.
Аудио 2: Dolby AC3 48KHz 2ch 192Kbps - Г.
Аудио 3: Dolby AC3 48KHz 2ch 192Kbps - А.

MediaInfo

Format : Matroska
Format version : Version 2
File size : 2.14 GiB
Duration : 1 h 41 min
Overall bit rate : 3 021 kb/s
Movie name : К-9_MEIN PARTNER MIT DER KALTEN SCHNAUZE_1989_BDRIP_НЕМЕЦ_ГАВРИЛОВ_ENG_KBC
Encoded date : UTC 2019-05-25 23:50:03
Writing application : mkvmerge v6.9.1 ('Blue Panther') 32bit built on Apr 18 2014 18:15:44
Writing library : libebml v1.3.0 + libmatroska v1.4.1
Video
ID : 1
Format : AVC
Format/Info : Advanced Video Codec
Format profile : High@L3.1
Format settings : CABAC / 7 Ref Frames
Format settings, CABAC : Yes
Format settings, RefFrames : 7 frames
Codec ID : V_MPEG4/ISO/AVC
Duration : 1 h 41 min
Bit rate : 2 443 kb/s
Width : 1 152 pixels
Height : 624 pixels
Display aspect ratio : 1.85:1
Frame rate mode : Constant
Frame rate : 23.976 (24000/1001) FPS
Color space : YUV
Chroma subsampling : 4:2:0
Bit depth : 8 bits
Scan type : Progressive
Bits/(Pixel*Frame) : 0.142
Stream size : 1.69 GiB (79%)
Title : K-9_1989
Writing library : x264 core 152 r2851kMod ba24899
Encoding settings : cabac=1 / ref=7 / deblock=1:-1:-1 / analyse=0x3:0x113 / me=umh / subme=9 / psy=1 / fade_compensate=0.00 / psy_rd=1.00:0.20 / mixed_ref=1 / me_range=24 / chroma_me=1 / trellis=2 / 8x8dct=1 / cqm=0 / deadzone=21,11 / fast_pskip=0 / chroma_qp_offset=-3 / threads=6 / lookahead_threads=1 / sliced_threads=0 / nr=0 / decimate=0 / interlaced=0 / bluray_compat=0 / constrained_intra=0 / bframes=7 / b_pyramid=2 / b_adapt=2 / b_bias=0 / direct=3 / weightb=1 / open_gop=0 / weightp=2 / keyint=250 / keyint_min=23 / scenecut=40 / intra_refresh=0 / rc_lookahead=50 / rc=2pass / mbtree=1 / bitrate=2443 / ratetol=1.0 / qcomp=0.60 / qpmin=0 / qpmax=69 / qpstep=4 / cplxblur=20.0 / qblur=0.5 / vbv_maxrate=14000 / vbv_bufsize=14000 / nal_hrd=none / filler=0 / ip_ratio=1.40 / aq=1:1.00
Language : English
Default : Yes
Forced : No
Audio #1
ID : 2
Format : AC-3
Format/Info : Audio Coding 3
Commercial name : Dolby Digital
Codec ID : A_AC3
Duration : 1 h 41 min
Bit rate mode : Constant
Bit rate : 192 kb/s
Channel(s) : 2 channels
Channel layout : L R
Sampling rate : 48.0 kHz
Frame rate : 31.250 FPS (1536 SPF)
Bit depth : 16 bits
Compression mode : Lossy
Stream size : 139 MiB (6%)
Title : Немец
Language : Russian
Service kind : Complete Main
Default : Yes
Forced : No
Audio #2
ID : 3
Format : AC-3
Format/Info : Audio Coding 3
Commercial name : Dolby Digital
Codec ID : A_AC3
Duration : 1 h 41 min
Bit rate mode : Constant
Bit rate : 192 kb/s
Channel(s) : 2 channels
Channel layout : L R
Sampling rate : 48.0 kHz
Frame rate : 31.250 FPS (1536 SPF)
Bit depth : 16 bits
Compression mode : Lossy
Stream size : 139 MiB (6%)
Title : Гаврилов /ранний/
Language : Russian
Service kind : Complete Main
Default : No
Forced : No
Audio #3
ID : 4
Format : AC-3
Format/Info : Audio Coding 3
Commercial name : Dolby Digital
Codec ID : A_AC3
Duration : 1 h 41 min
Bit rate mode : Constant
Bit rate : 192 kb/s
Channel(s) : 2 channels
Channel layout : L R
Sampling rate : 48.0 kHz
Frame rate : 31.250 FPS (1536 SPF)
Bit depth : 16 bits
Compression mode : Lossy
Stream size : 139 MiB (6%)
Title : English
Language : English
Service kind : Complete Main
Default : No
Forced : No

Скриншоты

ps

МИТЮ С ДР!!
[opentorrent.pro].t3137.torrent 
Торрент: Зарегистрирован [ 2019-05-26 17:05 ] · 31C839595BFA31425BFE8C4DD31D537A8459D4EF

Скачать .torrent

Скачать

11 KB

Статус: проверено
Скачан: 0 раз
Размер: 2,14 GB  ·  Тип торрента
terms.php
Профиль [ЛС]
Показать сообщения:    

Текущее время: 05-Авг 22:38

Часовой пояс: UTC ± 0



Вы не можете начинать темы
Вы не можете отвечать на сообщения
Вы не можете редактировать свои сообщения
Вы не можете удалять свои сообщения
Вы не можете голосовать в опросах
Вы не можете прикреплять файлы к сообщениям
Вы можете скачивать файлы