Статистика раздачи
Размер:  75 MB   |    Зарегистрирован:  1 год   |    Скачан:  0 раз
DL-List: Нет

Полного источника не было: Никогда

 
     
 
 

Гость ®

Пол:
Не указан

Шма Исраэль! Иудейская молитва
Страна: Россия
Жанр: мультфильм
Продолжительность: 00:07:02
Год выпуска: 2003
Перевод: cубтитры
Русские субтитры: есть
Режиссёр: Станислав Соколов
Описание: Еврейский мальчик после возвращения домой в пятницу вечером проникновенно читает вечернюю молитву, и перед его глазами, словно видения, возникают важные эпизоды из истории иудейского народа.
Качество: WEBRip
Формат: AVI
Видео: 1352 kbps, 640х480 (4:3), 25.000 fps, MPEG-4 Visual (XviD)
Аудио: 128 kbps, 44.1 kHz, 2 channels, MPEG Audio (MP3)
Субтитры: hardsub

Подробные технические данные

General
Complete name : Шма Исраэль! Иудейская молитва.avi
Format : AVI
Format/Info : Audio Video Interleave
File size : 75.1 MiB
Duration : 7mn 2s
Overall bit rate : 1 490 Kbps
Writing application : VirtualDubMod 1.5.10.2 (build 2540/release)
Writing library : VirtualDubMod build 2540/release
Video
ID : 0
Format : MPEG-4 Visual
Format profile : Advanced Simple@L5
Format settings, BVOP : 2
Format settings, QPel : No
Format settings, GMC : No warppoints
Format settings, Matrix : Default (H.263)
Codec ID : XVID
Codec ID/Hint : XviD
Duration : 7mn 2s
Bit rate : 1 352 Kbps
Width : 640 pixels
Height : 480 pixels
Display aspect ratio : 4:3
Frame rate : 25.000 fps
Color space : YUV
Chroma subsampling : 4:2:0
Bit depth : 8 bits
Scan type : Progressive
Compression mode : Lossy
Bits/(Pixel*Frame) : 0.176
Stream size : 68.1 MiB (91%)
Writing library : XviD 73
Audio
ID : 1
Format : MPEG Audio
Format version : Version 1
Format profile : Layer 3
Codec ID : 55
Codec ID/Hint : MP3
Duration : 7mn 2s
Bit rate mode : Constant
Bit rate : 128 Kbps
Channel(s) : 2 channels
Sampling rate : 44.1 KHz
Compression mode : Lossy
Stream size : 6.45 MiB (9%)
Alignment : Split accross interleaves
Interleave, duration : 40 ms (1.00 video frame)
Interleave, preload duration : 500 ms

Скриншоты

[opentorrent.pro].t3160.torrent 
Торрент: Зарегистрирован [ 2019-05-27 15:33 ] · DD2F22809F2188CBA2E6DFBFB2DE991EA6301E06

Скачать .torrent

Скачать

12 KB

Статус: проверено
Скачан: 0 раз
Размер: 75 MB  ·  Тип торрента
terms.php
Показать сообщения:    

Текущее время: 31-Май 10:26

Часовой пояс: UTC ± 0



Вы не можете начинать темы
Вы не можете отвечать на сообщения
Вы не можете редактировать свои сообщения
Вы не можете удалять свои сообщения
Вы не можете голосовать в опросах
Вы не можете прикреплять файлы к сообщениям
Вы можете скачивать файлы