Статистика раздачи
Размер:  1,46 GB   |    Зарегистрирован:  1 год 1 месяц   |    Скачан:  0 раз
DL-List: Нет

Полного источника не было: Никогда

 
     
 
 

serzh ®

Пол:
Не указан
Стаж:
1 год 4 месяца
Сообщений:
442

Преисподняя / Ад / Инферно / Inferno
Страна: Италия
Жанр: ужасы
Год выпуска: 1980
Продолжительность: 01:46:40
Перевод: Профессиональный (многоголосый закадровый) / Первый канал («Студия Эй Би Видео»)
Субтитры: нет
Оригинальная аудиодорожка: нет
Режиссер: Дарио Ардженто / Dario Argento
В ролях: Ли МакКлоски (Leigh McCloskey / Mark Elliot), Айрин Миракл (Irene Miracle / Rose Elliot), Элеонора Джорджи (Eleonora Giorgi / Sara), Дария Николоди (Daria Nicolodi / Elise De Longvalle Adler), Саша Питоефф (Sacha Pitoëff (в титрах: Sacha Pitoeff) / Kazaniant), Алида Валли (Alida Valli / Carol, the caretaker), Вероника Лазар (Veronica Lazar / The Nurse / Mater Tenebrarum), Габриэле Лавиа (Gabriele Lavia / Carlo), Фёдор Шаляпин мл. (Feodor Chaliapin Jr. (в титрах: Feodor Chaliapin) / Professor Arnold / Dr. Varelli), Леопольдо Мастеллони (Leopoldo Mastelloni / John, the Butler), Ания Пьерони (Ania Pieroni / Music Student), Джеймс Флитвуд (James Fleetwood / Cook), Розарио Ригутини (Rosario Rigutini / Man), Райан Хиллиард (Ryan Hilliard / Shadow), Паоло Паолони (Paolo Paoloni / Music Teacher), Фульвио Мингоцци (Fulvio Mingozzi / Cabdriver) и другие.
Описание: Роуз Эллиот – молодая поэтесса, живущая в Нью-Йорке, покупает у владельца антикварного магазина Казаняна старинную книгу «Три Матери», написанную архитектором Варелли. Книга повествует о жизни трёх злых сестёр-ведьм, которые управляют миром с помощью скорби, слёз и тьмы. Поняв, что факты, изложенные в этой книге являются истиной, и более того, Роуз живёт как раз в том самом доме, где обитает одна из ведьм, девушка в панике звонит своему брату Марку в Рим с мольбой поскорее приехать к ней в Нью-Йорк. Марк Эллиот, который в последнее время также стал свидетелем необычных событий, срывается с места и летит в Нью-Йорк. Приехав к сестре, Марк не обнаруживает её, а сам он оказывается втянут в необычные и загадочные тайны дома.
Доп. информация: За исходник для видео спасибо Тарантиныч. За озвучку Первого канала (запись на VHS) спасибо snikersni66.

Сэмпл: Здесь
Качество видео: BDRip (Исходник BDRemux)
Формат видео: AVI
Видео: XviD, 704x384 (1,83:1) / 23,976 fps / 1760 kbps / 0,271 bit/pixel
Аудио: Russian: AC3 2/0 (L, R) ch, 192 kbps, 48 kHz, 16 bit / многоголосый (Первый канал)

MediaInfo

Общее
Полное имя : D:\Папка для скачиваний в ruTracker.org\Inferno.1980.BDRip_MVO(Первый канал).avi
Формат : AVI
Формат/Информация : Audio Video Interleave
Размер файла : 1,46 Гбайт
Продолжительность : 1 ч. 46 м.
Общий поток : 1961 Кбит/сек
Программа кодирования : VirtualDubMod 1.5.10.2 (build 2540/release)
Библиотека кодирования : VirtualDubMod build 2540/release
Видео
Идентификатор : 0
Формат : MPEG-4 Visual
Профиль формата : Advanced Simple@L5
Параметр BVOP формата : 1
Параметр QPel формата : Нет
Параметр GMC формата : Без точки перехода
Параметр матрицы формата : Выборочная
Идентификатор кодека : XVID
Идентификатор кодека/Подсказка : XviD
Продолжительность : 1 ч. 46 м.
Битрейт : 1760 Кбит/сек
Ширина : 704 пикселя
Высота : 384 пикселя
Соотношение сторон : 1,85:1
Частота кадров : 23,976 кадра/сек
Цветовое пространство : YUV
Субдискретизация насыщенности : 4:2:0
Битовая глубина : 8 бит
Тип развёртки : Прогрессивная
Метод сжатия : С потерями
Бит/(Пиксели*Кадры) : 0.271
Размер потока : 1,31 Гбайт (90%)
Библиотека кодирования : XviD 1.2.1 (UTC 2008-12-04)
Аудио
Идентификатор : 1
Формат : AC-3
Формат/Информация : Audio Coding 3
Расширение режима : CM (complete main)
Параметр Endianness формата : Big
Идентификатор кодека : 2000
Продолжительность : 1 ч. 46 м.
Вид битрейта : Постоянный
Битрейт : 192 Кбит/сек
Каналы : 2 канала
Расположение каналов : Front: L R
Частота : 48,0 КГц
Битовая глубина : 16 бит
Метод сжатия : С потерями
Размер потока : 146 Мбайт (10%)
Выравнивание : Разделение по промежуткам
Продолжительность промежутка : 42 мс. (1,00 видеокадр)
Время предзагрузки промежутка : 500 мс.
Заголовок : MVO (Первый канал)

Скриншот c названием фильма

Скриншоты

[opentorrent.pro].t3168.torrent 
Торрент: Зарегистрирован [ 2019-05-27 15:33 ] · A9F76AC44A744A622FB0245E34D5A11A36EF12D6

Скачать .torrent

Скачать

15 KB

Статус: проверено
Скачан: 0 раз
Размер: 1,46 GB  ·  Тип торрента
terms.php
Профиль [ЛС]
Показать сообщения:    

Текущее время: 16-Июл 14:34

Часовой пояс: UTC ± 0



Вы не можете начинать темы
Вы не можете отвечать на сообщения
Вы не можете редактировать свои сообщения
Вы не можете удалять свои сообщения
Вы не можете голосовать в опросах
Вы не можете прикреплять файлы к сообщениям
Вы можете скачивать файлы