Статистика раздачи
Размер:  2,39 GB   |    Зарегистрирован:  1 год   |    Скачан:  0 раз
DL-List: Нет
Сидов:  6  [  0 KB/s  ]   Личеров:  1  [  0 KB/s  ]  
 
     
 
 

Гость ®

Пол:
Не указан

Живая мина- Год выпуска: 2019
Производство: Киностудия КИТ
Жанр: Боевик, детектив
Продолжительность: 00:46:28
Субтитры: нет-Режиссёр: Михаил Кабанов-В ролях: Антон Васильев (III), Виктория Корлякова, Петар Зекавица, Александр Карпов (III), Арсений Робак, Мария Свирид, Святослав Астрамович, Виталий Ходин-Описание: Владимир Фадеев жил по закону: «Фадеев всегда прав. Кто не прав – тот не Фадеев». Он был профессионалом своего дела. Ему были подвластны самые сложные взрывные устройства. Но однажды его самонадеянность сыграла с ним злую шутку. В Сирии, при разминировании автобуса с мирными жителями, он не учёл запасной взрыватель, и, после его команды «открыть двери», автобус взлетел на воздух. Фадеев навсегда запомнил лицо улыбающейся сирийской девушки из Красного Креста. Посттравматический синдром заставил его комиссоваться. Теперь он – выкинутый на обочину мирной жизни пьяница, подрабатывающий охранником. Но вот в музее, из которого его уволили за распитие спиртных напитков во время дежурства, происходит взрыв. И Фадеев вновь оказывается нужным: только он может понять, как действовал подрывник.-Сэмпл: http://multi-up.com/1233035-Качество: SATRip
Формат: AVI
Видео кодек: XviD
Аудио кодек: MP3
Видео: 704x288 (2.40:1), 25.000 fps, XviD, 1603 Kbps, 0.31 bit/pixel
Аудио: 48 kHz, MP3, 2 ch, 192 Kbps
Реклама: Нет

Релиз

Рип: 25Kuzmich
Без Рекламы

MI

General
Complete name : Downloads\Zhivaya.mina.2018.XviD.SATRip.25Kuzmich\Zhivaya.mina.e01.XviD.SATRip.25Kuzmich.avi
Format : AVI
Format/Info : Audio Video Interleave
File size : 600 MiB
Duration : 46mn 28s
Overall bit rate : 1 805 Kbps
Writing application : VirtualDubMod 1.5.10.3 | www.virtualdub-fr.org || (build 2550/release)
Writing library : VirtualDubMod build 2550/release
Video #0
ID : 0
Format : MPEG-4 Visual
Format profile : Advanced Simple@L5
Format settings, BVOP : 1
Format settings, QPel : No
Format settings, GMC : No warppoints
Format settings, Matrix : Default (MPEG)
Codec ID : XVID
Codec ID/Hint : XviD
Duration : 46mn 28s
Bit rate : 1 603 Kbps
Width : 704 pixels
Height : 288 pixels
Display aspect ratio : 2.40:1
Frame rate : 25.000 fps
Color space : YUV
Chroma subsampling : 4:2:0
Bit depth : 8 bits
Scan type : Progressive
Compression mode : Lossy
Bits/(Pixel*Frame) : 0.316
Stream size : 533 MiB (89%)
Writing library : XviD 73
Audio #1
ID : 1
Format : MPEG Audio
Format version : Version 1
Format profile : Layer 3
Mode : Joint stereo
Mode extension : MS Stereo
Codec ID : 55
Codec ID/Hint : MP3
Duration : 46mn 28s
Bit rate mode : Constant
Bit rate : 192 Kbps
Channel(s) : 2 channels
Sampling rate : 48.0 KHz
Compression mode : Lossy
Stream size : 63.8 MiB (11%)
Alignment : Aligned on interleaves
Interleave, duration : 40 ms (1.00 video frame)
Interleave, preload duration : 504 ms
Writing library : LAME3.99r
Encoding settings : -m j -V 4 -q 2 -lowpass 18.6 -b 192

Скриншоты

Внимание! Раздача ведётся путём добавления новых серий:

(1) остановить скачивание,
(2) удалить старый торрент у себя из клиента (старые серии удалять не надо),
(3) скачать новый торрент и запустить его у себя в клиенте вместо старого, при этом указать клиенту путь в старую папку куда и должно происходить скачивание новых серий.
Ваш клиент при этом должен произвести хеширование (проверку) старой папки (если не производит сам - помогите ему сделать это), и будет докачивать только те серии которых у вас ещё нет. Старые серии при этом не удаляются, а продолжают раздаваться!
Eсли вы уже удалили старые серии, то предотвратить повторную закачку старых серий можно, отжав галочку в соответсвующих местах при запуске нового торрента. По возможности, желательно не удалять старые серии как можно дольше чтобы релизёр не столько продолжал раздавать старые серии, а смог сконцентрироваться на новых
.
Предыдущие и альтернативные раздачи
[opentorrent.pro].t3197.torrent 
Торрент: Зарегистрирован [ 2019-05-29 16:20 ] · 11DEC1D8405D97DC4BFEFC190EE58B3010139627

Скачать .torrent

Скачать

13 KB

Статус: проверено
Скачан: 0 раз
Размер: 2,39 GB  ·  Тип торрента
terms.php
Показать сообщения:    

Текущее время: 31-Май 08:28

Часовой пояс: UTC ± 0



Вы не можете начинать темы
Вы не можете отвечать на сообщения
Вы не можете редактировать свои сообщения
Вы не можете удалять свои сообщения
Вы не можете голосовать в опросах
Вы не можете прикреплять файлы к сообщениям
Вы можете скачивать файлы