Статистика раздачи
Размер:  1,45 GB   |    Зарегистрирован:  1 год   |    Скачан:  0 раз
DL-List: Нет

Полного источника не было: Никогда

 
     
 
 

serzh ®

Пол:
Не указан
Стаж:
1 год 2 месяца
Сообщений:
442

Когда умирает мозг / Мертвый мозг / Brain Dead- Год выпуска: 1990
Страна: США
Жанр: ужасы, фантастика, триллер, детектив
Продолжительность: 01:24:15
Перевод: Профессиональный (двухголосый закадровый)
Субтитры: нет-Режиссер: Адам Саймон / Adam Simon
В ролях: Билл Пуллман, Билл Пэкстон, Николас Прайор, Патриция Шарбонно, Джордж Кеннеди, Брайан Брофи, Ли Аренберг, Энди Вуд, Мод Уинчестер
О фильме: Молодой талантливый нейрохирург Рекс Мартин соглашается на уговоры своего приятеля Джима Рестона и проводит не совсем законную экспериментальную операцию на мозге ученого-математика Холси, пациента одной из закрытых психиатрических лечебниц.
Операция эта должна либо подтвердить, либо опровергнуть не завершенные, пока еще лишь теоретические разработки в области психических заболеваний (в данном случае — паранойи), которыми занимался доктор Мартин. Проблема в том, что Джима Рестона интересовала формула, которую знал только математик Холси, и возможность «извлечь» ее из мозга больного ученого, а хирург Рекс Мартин пустился в исследования галлюцинаций, маний, фобий, то есть всего, чем он профессионально занимался.
Если бы он только знал, к чему приведет вся эта затея с экспериментальной операцией!..-Скачать: Сэмпл
Автор рипа: Ruddle-Качество: BDRip
Формат: AVI
Видео: 704x384 (1.83:1), 23.976 fps, XviD build 73 ~2269 kbps avg, 0.35 bit/pixel
Аудио: 48 kHz, AC3 Dolby Digital, 2/0 (L,R) ch, ~192 kbps-

скриншоты


MI

Код:Общее
Полное имя : D:\Brain.Dead.1990.BDRip.avi
Формат : AVI
Формат/Информация : Audio Video Interleave
Размер файла : 1,45 Гбайт
Продолжительность : 1 ч. 24 м.
Общий поток : 2471 Кбит/сек
Программа кодирования : VirtualDubMod 1.5.10.3 | www.virtualdub-fr.org || (build 2550/release)
Библиотека кодирования : VirtualDubMod build 2550/release
Видео
Идентификатор : 0
Формат : MPEG-4 Visual
Профиль формата : Advanced Simple@L5
Настройки формата : BVOP1 / Custom Matrix
Параметр BVOP формата : 1
Параметр QPel формата : Нет
Параметр GMC формата : Без точки перехода
Параметр матрицы формата : Выборочная
Идентификатор кодека : XVID
Идентификатор кодека/Подсказка : XviD
Продолжительность : 1 ч. 24 м.
Битрейт : 2270 Кбит/сек
Ширина : 704 пикселя
Высота : 384 пикселя
Соотношение сторон : 1,85:1
Частота кадров : 23,976 (24000/1001) кадра/сек
Цветовое пространство : YUV
Субдискретизация насыщенности : 4:2:0
Битовая глубина : 8 бит
Тип развёртки : Прогрессивная
Метод сжатия : С потерями
Бит/(Пиксели*Кадры) : 0.350
Размер потока : 1,34 Гбайт (92%)
Библиотека кодирования : XviD 73
Аудио
Идентификатор : 1
Формат : AC-3
Формат/Информация : Audio Coding 3
Идентификатор кодека : 2000
Продолжительность : 1 ч. 24 м.
Вид битрейта : Постоянный
Битрейт : 192 Кбит/сек
Каналы : 2 канала
Расположение каналов : Front: L R
Частота : 48,0 КГц
Частота кадров : 31,250 кадров/сек (1536 SPF)
Битовая глубина : 16 бит
Метод сжатия : С потерями
Размер потока : 116 Мбайт (8%)
Выравнивание : Разделение по промежуткам
Продолжительность промежутка : 42 мс. (1,00 видеокадр)
Время предзагрузки промежутка : 500 мс.
ServiceKind/String : Complete Main
[opentorrent.pro].t3202.torrent 
Торрент: Зарегистрирован [ 2019-05-29 16:20 ] · 4F3B4BD97073CDE086E688096614E277C1F07C3E

Скачать .torrent

Скачать

15 KB

Статус: проверено
Скачан: 0 раз
Размер: 1,45 GB  ·  Тип торрента
terms.php
Профиль [ЛС]
Показать сообщения:    

Текущее время: 31-Май 07:54

Часовой пояс: UTC ± 0



Вы не можете начинать темы
Вы не можете отвечать на сообщения
Вы не можете редактировать свои сообщения
Вы не можете удалять свои сообщения
Вы не можете голосовать в опросах
Вы не можете прикреплять файлы к сообщениям
Вы можете скачивать файлы