Статистика раздачи
Размер:  1,45 GB   |    Зарегистрирован:  1 год 2 месяца   |    Скачан:  0 раз
DL-List: Нет

Полного источника не было: Никогда

 
     
 
 

Гость ®

Пол:
Не указан

Пляжный бездельник / The Beach Bum- Год выхода: 2019
Страна: США, Великобритания
Производство: Iconoclast, Anonymous Content
Жанр: комедия
Продолжительность: 01:30:34
Перевод: Профессиональный (полное дублирование)
Субтитры: нет-Режиссер:
Хармони Корин / Harmony Korine-В ролях:
Мэттью МакКонахи, Снуп Догг, Айла Фишер, Мартин Лоуренс, Зак Эфрон, Джона Хилл, Стефания Оуэн, Донован Сент Ви Уильямс, Клинтон Арчамбо, Джерри Асчьоне, Джимми Баффетт-О фильме:
Отвязный тусовщик по кличке Лунный пёс плевать хотел на все общественные нормы. Все, что ему нужно, — это бабки на бухло и пляжные вечеринки. Но если он не допишет поэму, не получит наследства покойной жены. И стоит ли из-за этого париться?-Релиз групп | | IMDB | КиноПоиск | Сэмпл |-Качество: WEB-DLRip
Формат: AVI
Видео: 720x304 (2.37:1), 25 fps, XviD build 67 ~1903 kbps avg, 0.35 bit/pixel
Аудио: 48 kHz, AC3 Dolby Digital, 3/2 (L,C,R,l,r) + LFE ch, ~384 kbps avg - iTunes Russia-

Скриншоты

-

MediaInfo

Код:Полное имя : D:\Plyazhnyi_bezdelnik_2019_WEB-DLRip_iT_by_Dalemake.avi
Формат : AVI
Формат/Информация : Audio Video Interleave
Размер файла : 1,45 Гбайт
Продолжительность : 1 ч. 30 м.
Общий поток : 2298 Кбит/сек
Программа кодирования : VirtualDubMod 1.5.10.3 | www.virtualdub-fr.org || (build 2550/release)
Библиотека кодирования : VirtualDubMod build 2550/release
Видео
Идентификатор : 0
Формат : MPEG-4 Visual
Профиль формата : Advanced Simple@L5
Параметр BVOP формата : 1
Параметр QPel формата : Нет
Параметр GMC формата : Без точки перехода
Параметр матрицы формата : Выборочная
Идентификатор кодека : XVID
Идентификатор кодека/Подсказка : XviD
Продолжительность : 1 ч. 30 м.
Битрейт : 1904 Кбит/сек
Ширина : 720 пикселей
Высота : 304 пикселя
Соотношение сторон : 2,35:1
Частота кадров : 25,000 кадров/сек
Цветовое пространство : YUV
Субдискретизация насыщенности : 4:2:0
Битовая глубина : 8 бит
Тип развёртки : Прогрессивная
Метод сжатия : С потерями
Бит/(Пиксели*Кадры) : 0.348
Размер потока : 1,20 Гбайт (83%)
Библиотека кодирования : XviD 67
Аудио
Идентификатор : 1
Формат : AC-3
Формат/Информация : Audio Coding 3
Расширение режима : CM (complete main)
Параметр Endianness формата : Big
Идентификатор кодека : 2000
Продолжительность : 1 ч. 30 м.
Вид битрейта : Постоянный
Битрейт : 384 Кбит/сек
Каналы : 6 каналов
Расположение каналов : Front: L C R, Side: L R, LFE
Частота : 48,0 КГц
Метод сжатия : С потерями
Размер потока : 249 Мбайт (17%)
Выравнивание : Разделение по промежуткам
Продолжительность промежутка : 40 мс. (1,00 видеокадр)
Время предзагрузки промежутка : 500 мс.
-
[opentorrent.pro].t3219.torrent 
Торрент: Зарегистрирован [ 2019-05-29 16:20 ] · 71B6541BADE575CD64D73B4B267CD44778F9C64F

Скачать .torrent

Скачать

15 KB

Статус: проверено
Скачан: 0 раз
Размер: 1,45 GB  ·  Тип торрента
terms.php
Показать сообщения:    

Текущее время: 05-Авг 01:13

Часовой пояс: UTC ± 0



Вы не можете начинать темы
Вы не можете отвечать на сообщения
Вы не можете редактировать свои сообщения
Вы не можете удалять свои сообщения
Вы не можете голосовать в опросах
Вы не можете прикреплять файлы к сообщениям
Вы можете скачивать файлы