Статистика раздачи
Размер:  2,04 GB   |    Зарегистрирован:  1 год 2 месяца   |    Скачан:  0 раз
DL-List: Нет

Полного источника не было: Никогда

 
     
 
 

serzh ®

Пол:
Не указан
Стаж:
1 год 4 месяца
Сообщений:
442

Смертельная красотка / Роковая красотка / Fatal Beauty
Страна: США, Япония
Жанр: боевик
Год выпуска: 1987
Продолжительность: 01:44:17
Перевод 1: Профессиональный (двухголосый закадровый) Союз-Совенчер
Перевод 2: Профессиональный (многоголосый закадровый) ОРТ
Перевод 3: Авторский (одноголосый закадровый) Михаил Иванов
Субтитры: нет
Оригинальная аудиодорожка: нет
Режиссер: Том Холланд / Tom Holland
В ролях: Вупи Голдберг, Сэм Эллиотт, Рубен Бладес, Харрис Юлин, Джон П. Райан, Брэд Дуриф
Описание: Рита — полицейский, сотрудница отдела по борьбе с наркотиками. Мужественная женщина практически в одиночку выслеживает крупную банду наркодельцов, распространяющих смертельный наркотик, носящий название «Роковая красотка»…
Доп. информация:
Видеоряд и перевод с лицензионной VHS от "Союз-Совенчер" взяты с Рутора.
За запись фильма с переводом телеканала ОРТ огромное спасибо RoxMarty и RABOTNIC.
Звуковую дорожку ОРТ слегка почистил от фонового шума и треска shocker80, за что его также благодарю.
За звуковую дорожку с переводом М. Иванова благодарим Raptorio Rio.
За синхронизацию звуковых дорожек с переводами ОРТ и М. Иванова огромная благодарность ale_x2008.
Все переводы на трекере впервые!
Сэмпл: https://www.sendspace.com/file/tu1v4b
Качество видео: HDRip-AVC
Формат видео: MKV
Видео: 1014x548, 23.976 fps, AVC, 2225 Kbps
Аудио 1: 48 KHz, AC3, 2 ch (mono), 192 Kbps - (DVO Союз-Совенчер)
Аудио 2: 48 KHz, AC3, 2 ch (mono), 192 Kbps - (MVO ОРТ)
Аудио 3: 48 KHz, AC3, 2 ch (mono), 192 Kbps - (AVO М. Иванов)

MediaInfo

General
Unique ID : 201974046892815170074951640875522490634 (0x97F2C9576884C9CF88FF5E193B6A810A)
Complete name : C:\Users\Сергей\Downloads\Роковая красотка (Союз, ОРТ, Иванов).mkv
Format : Matroska
Format version : Version 2
File size : 2.04 GiB
Duration : 1h 44mn
Overall bit rate : 2 802 Kbps
Movie name : Смертельная красотка
Encoded date : UTC 2018-11-01 21:43:26
Writing application : mkvmerge v5.4.0 ('Piper') built on Mar 10 2012 13:34:39
Writing library : Lavf57.41.100
Video
ID : 1
Format : AVC
Format/Info : Advanced Video Codec
Format profile : High@L4.1
Format settings, CABAC : Yes
Format settings, ReFrames : 10 frames
Codec ID : V_MPEG4/ISO/AVC
Duration : 1h 44mn
Bit rate : 2 225 Kbps
Width : 1 014 pixels
Height : 548 pixels
Display aspect ratio : 1.85:1
Frame rate mode : Constant
Frame rate : 23.976 fps
Color space : YUV
Chroma subsampling : 4:2:0
Bit depth : 8 bits
Scan type : Progressive
Bits/(Pixel*Frame) : 0.167
Stream size : 1.58 GiB (77%)
Writing library : x264 core 148 r2762M 90a61ec
Encoding settings : cabac=1 / ref=10 / deblock=1:-2:-2 / analyse=0x3:0x133 / me=umh / subme=11 / psy=1 / psy_rd=1.00:0.10 / mixed_ref=1 / me_range=64 / chroma_me=1 / trellis=2 / 8x8dct=1 / cqm=0 / deadzone=21,11 / fast_pskip=0 / chroma_qp_offset=-3 / threads=12 / lookahead_threads=3 / sliced_threads=0 / nr=0 / decimate=1 / interlaced=0 / bluray_compat=0 / constrained_intra=0 / bframes=11 / b_pyramid=2 / b_adapt=2 / b_bias=0 / direct=3 / weightb=1 / open_gop=0 / weightp=2 / keyint=230 / keyint_min=23 / scenecut=40 / intra_refresh=0 / rc=2pass / mbtree=0 / bitrate=2225 / ratetol=1.0 / qcomp=0.70 / qpmin=0 / qpmax=69 / qpstep=4 / cplxblur=20.0 / qblur=0.5 / ip_ratio=1.40 / pb_ratio=1.30 / aq=1:1.00
Language : English
Default : Yes
Forced : No
ENCODING_INFO : x264 - core 148 r2744kMod b97ae06 - H.264/MPEG-4 AVC codec - Copyleft 2003-2016 - http://www.videolan.org/x264.html - options: cabac=1 ref=9 deblock=1:-3:-3 analyse=0x3:0x113 me=umh subme=11 psy=1 fade_compensate=0.00 psy_rd=1.10:0.00 mixed_ref=1 me_range=32 chroma_me=1 trellis=2 8x8dct=1 cqm=0 deadzone=21,11 fast_pskip=0 chroma_qp_offset=-2 threads=6 lookahead_threads=2 sliced_threads=0 nr=0 decimate=0 interlaced=0 bluray_compat=0 constrained_intra=0 bframes=9 b_pyramid=2 b_adapt=2 b_bias=0 direct=3 weightb=1 open_gop=0 weightp=2 keyint=250 keyint_min=23 scenecut=40 intra_refresh=0 rc=2pass mbtree=0 bitrate=8031 ratetol=1.0 qcomp=0.60 qpmin=0 qpmax=69 qpstep=4 cplxblur=20.0 qblur=0.5 ip_ratio=1.40 pb_ratio=1.30 aq=2:0.80
DURATION : 01:44:16.959000000
Color primaries : BT.709
Transfer characteristics : BT.709
Matrix coefficients : BT.709
Audio #1
ID : 2
Format : AC-3
Format/Info : Audio Coding 3
Mode extension : CM (complete main)
Format settings, Endianness : Big
Codec ID : A_AC3
Duration : 1h 44mn
Bit rate mode : Constant
Bit rate : 192 Kbps
Channel(s) : 2 channels
Channel positions : Front: L R
Sampling rate : 48.0 KHz
Bit depth : 16 bits
Compression mode : Lossy
Stream size : 143 MiB (7%)
Title : DVO Союз-Совенчер
Language : Russian
Default : Yes
Forced : No
DURATION : 01:44:17.024000000
Audio #2
ID : 3
Format : AC-3
Format/Info : Audio Coding 3
Mode extension : CM (complete main)
Format settings, Endianness : Big
Codec ID : A_AC3
Duration : 1h 44mn
Bit rate mode : Constant
Bit rate : 192 Kbps
Channel(s) : 2 channels
Channel positions : Front: L R
Sampling rate : 48.0 KHz
Bit depth : 16 bits
Compression mode : Lossy
Stream size : 143 MiB (7%)
Title : MVO 1 канал
Language : Russian
Default : No
Forced : No
Audio #3
ID : 4
Format : AC-3
Format/Info : Audio Coding 3
Mode extension : CM (complete main)
Format settings, Endianness : Big
Codec ID : A_AC3
Duration : 1h 44mn
Bit rate mode : Constant
Bit rate : 192 Kbps
Channel(s) : 2 channels
Channel positions : Front: L R
Sampling rate : 48.0 KHz
Bit depth : 16 bits
Compression mode : Lossy
Stream size : 143 MiB (7%)
Title : AVO М.Иванов
Language : Russian
Default : No
Forced : No
Menu
00:05:00.000 : :CHAPTER01
00:10:00.000 : :CHAPTER02
00:15:00.000 : :CHAPTER03
00:20:00.000 : :CHAPTER04
00:25:00.000 : :CHAPTER05
00:30:00.000 : :CHAPTER06
00:35:00.000 : :CHAPTER07
00:40:00.000 : :CHAPTER08
00:45:00.000 : :CHAPTER09
00:50:00.000 : :CHAPTER10
00:55:00.000 : :CHAPTER11
01:00:00.000 : :CHAPTER12
01:05:00.000 : :CHAPTER13
01:10:00.000 : :CHAPTER14
01:15:00.000 : :CHAPTER15
01:20:00.000 : :CHAPTER16
01:25:00.000 : :CHAPTER17
01:30:00.000 : :CHAPTER18
01:35:00.000 : :CHAPTER19
01:40:00.000 : :CHAPTER20

Скриншоты

Релиз перезалит 23.05.2019г. в связи с заменой оригинальной английской дорожки на дорожку с переводом М. Иванова.
[opentorrent.pro].t3222.torrent 
Торрент: Зарегистрирован [ 2019-05-30 16:49 ] · 087D4D9AF326F4D42594471FC7860D1F195391D1

Скачать .torrent

Скачать

11 KB

Статус: проверено
Скачан: 0 раз
Размер: 2,04 GB  ·  Тип торрента
terms.php
Профиль [ЛС]
Показать сообщения:    

Текущее время: 11-Авг 16:38

Часовой пояс: UTC ± 0



Вы не можете начинать темы
Вы не можете отвечать на сообщения
Вы не можете редактировать свои сообщения
Вы не можете удалять свои сообщения
Вы не можете голосовать в опросах
Вы не можете прикреплять файлы к сообщениям
Вы можете скачивать файлы