Статистика раздачи
Размер:  913 MB   |    Зарегистрирован:  11 месяцев 27 дней   |    Скачан:  0 раз
DL-List: Нет
Сидов:  1  [  0 KB/s  ]  
 
     
 
 

Гость ®

Пол:
Не указан

Спасите утопающего- Жанр: приключения
Год выпуска: 1967
Продолжительность: 01:05:53-Режиссёр: Павел Арсенов-В ролях: Андрей Ушаков, Леонид Карасев, Егор Дьяков, Владимир Бобылев, Владимир Варенов, Анна Ратникова, Юрий Солодов, Светлана Харитонова, Валерий Носик, Георгий Вицин, Алексей Смирнов, Анатолий Столбов, Олег Ефремов
Описание: Пионер Андрей Васильков захотел стать героем - и на глазах у чешских туристов "спас" не умеющего плавать Гульку, предварительно прорубив дно лодки. И теперь он выступает на собраниях, делится опытом, дает советы... Но на городском водном празднике герою становится стыдно. И тогда Гулька сам прыгает в воду, чтобы Андрей снова мог его спасти.-Исходник | Сэмпл | Кинопоиск-Качество видео: SATRip-AVC, спасибо TarasBilbo, Cheef mate за исходник
Формат видео: MKV
Видео: x264 (High@L4.1); 712@759x352, Display aspect ratio 2.156:1, 25.000 fps, 1742 Kbps
Аудио: AC-3; 16 bits 48 Khz; 2.0ch 192 Kbps; CBR

MediaInfo

x264 log

avs [info]: 712x352p 16:15 @ 25/1 fps (cfr)
x264 [info]: using SAR=16/15
x264 [info]: using cpu capabilities: MMX2 SSE2Fast SSSE3 SSE4.2
x264 [info]: profile High, level 4.1
x264 [info]: frame I:557 Avg QP:19.02 size: 34928
x264 [info]: frame P:25483 Avg QP:20.20 size: 17033
x264 [info]: frame B:72806 Avg QP:22.10 size: 5599
x264 [info]: consecutive B-frames: 5.4% 1.4% 8.7% 32.1% 20.3% 30.1% 1.6% 0.4% 0.1% 0.0%
x264 [info]: mb I I16..4: 4.0% 83.3% 12.6%
x264 [info]: mb P I16..4: 0.1% 10.8% 0.8% P16..4: 38.4% 27.0% 20.7% 1.0% 0.3% skip: 0.9%
x264 [info]: mb B I16..4: 0.0% 1.3% 0.2% B16..8: 42.2% 12.2% 4.0% direct: 9.3% skip:30.9% L0:38.7% L1:35.6% BI:25.7%
x264 [info]: 8x8 transform intra:90.3% inter:63.9%
x264 [info]: coded y,uvDC,uvAC intra: 98.7% 0.0% 0.0% inter: 39.4% 0.0% 0.0%
x264 [info]: i16 v,h,dc,p: 12% 15% 22% 51%
x264 [info]: i8 v,h,dc,ddl,ddr,vr,hd,vl,hu: 9% 21% 15% 6% 8% 8% 11% 8% 14%
x264 [info]: i4 v,h,dc,ddl,ddr,vr,hd,vl,hu: 8% 25% 3% 7% 10% 10% 13% 9% 16%
x264 [info]: i8c dc,h,v,p: 100% 0% 0% 0%
x264 [info]: Weighted P-Frames: Y:36.5% UV:0.0%
x264 [info]: ref P L0: 43.6% 13.7% 10.9% 5.8% 4.4% 3.7% 3.3% 2.1% 2.0% 1.8% 1.7% 1.6% 1.5% 1.4% 1.4% 1.1%
x264 [info]: ref B L0: 81.9% 6.1% 2.8% 1.7% 1.3% 1.2% 1.0% 0.7% 0.6% 0.6% 0.5% 0.5% 0.5% 0.4% 0.3%
x264 [info]: ref B L1: 98.1% 1.9%
x264 [info]: kb/s:1742.46
-General
Unique ID : 230725665333054291014267105039963650965 (0xAD94259365CCB5E3815B42E99617FB95)
Complete name : Спасите утопающего.1967.mkv
Format : Matroska
Format version : Version 2
File size : 913 MiB
Duration : 1 h 5 min
Overall bit rate : 1 936 kb/s
Encoded date : UTC 2019-05-26 12:57:16
Writing application : mkvmerge v7.8.0 ('River Man') 32bit built on Mar 27 2015 16:18:02
Writing library : libebml v1.3.1 + libmatroska v1.4.2
Video
ID : 1
Format : AVC
Format/Info : Advanced Video Codec
Format profile : High@L4.1
Format settings : CABAC / 16 Ref Frames
Format settings, CABAC : Yes
Format settings, ReFrames : 16 frames
Codec ID : V_MPEG4/ISO/AVC
Duration : 1 h 5 min
Bit rate : 1 706 kb/s
Width : 712 pixels
Height : 352 pixels
Display aspect ratio : 2.2:1
Original display aspect rat : 2.2:1
Frame rate mode : Constant
Frame rate : 25.000 FPS
Color space : YUV
Chroma subsampling : 4:2:0
Bit depth : 8 bits
Scan type : Progressive
Bits/(Pixel*Frame) : 0.272
Stream size : 804 MiB (88%)
Title : Спасите утопающего 1967
Writing library : x264 core 152 r2851kMod ba24899
Encoding settings : cabac=1 / ref=16 / deblock=1:-2:-1 / analyse=0x3:0x133 / me=umh / subme=10 / psy=1 / fade_compensate=0.00 / psy_rd=1.10:0.10 / mixed_ref=1 / me_range=32 / chroma_me=1 / trellis=2 / 8x8dct=1 / cqm=0 / deadzone=21,11 / fast_pskip=0 / chroma_qp_offset=-3 / threads=11 / lookahead_threads=1 / sliced_threads=0 / nr=0 / decimate=0 / interlaced=0 / bluray_compat=0 / constrained_intra=0 / bframes=9 / b_pyramid=2 / b_adapt=2 / b_bias=0 / direct=1 / weightb=1 / open_gop=0 / weightp=2 / keyint=250 / keyint_min=25 / scenecut=40 / intra_refresh=0 / rc_lookahead=60 / rc=crf / mbtree=0 / crf=18.0000 / qcomp=0.60 / qpmin=0 / qpmax=69 / qpstep=4 / vbv_maxrate=62500 / vbv_bufsize=78125 / crf_max=0.0 / nal_hrd=none / filler=0 / ip_ratio=1.35 / pb_ratio=1.25 / aq=1:0.90
Language : Russian
Default : Yes
Forced : No
Color range : Limited
Color primaries : BT.601 PAL
Transfer characteristics : BT.470 System B, BT.470 System G
Matrix coefficients : BT.470 System B, BT.470 System G
Audio
ID : 2
Format : AC-3
Format/Info : Audio Coding 3
Codec ID : A_AC3
Duration : 1 h 5 min
Bit rate mode : Constant
Bit rate : 192 kb/s
Channel(s) : 2 channels
Channel positions : Front: L R
Sampling rate : 48.0 kHz
Frame rate : 31.250 FPS (1536 SPF)
Bit depth : 16 bits
Compression mode : Lossy
Stream size : 90.5 MiB (10%)
Language : Russian
Service kind : Complete Main
Default : Yes
Forced : No
[opentorrent.pro].t3242.torrent 
Торрент: Зарегистрирован [ 2019-05-31 17:13 ] · 2C3380F7CFF22F37C0CB10B2C4AA29C8068641C3

Скачать .torrent

Скачать

18 KB

Статус: проверено
Скачан: 0 раз
Размер: 913 MB  ·  Тип торрента
terms.php
Показать сообщения:    

Текущее время: 28-Май 05:18

Часовой пояс: UTC ± 0



Вы не можете начинать темы
Вы не можете отвечать на сообщения
Вы не можете редактировать свои сообщения
Вы не можете удалять свои сообщения
Вы не можете голосовать в опросах
Вы не можете прикреплять файлы к сообщениям
Вы можете скачивать файлы