Статистика раздачи
Размер:  1,37 GB   |    Зарегистрирован:  1 год 2 месяца   |    Скачан:  0 раз
DL-List: Нет

Полного источника не было: Никогда

 
     
 
 

Гость ®

Пол:
Не указан

Садуто туто / Sadūto tūto
Жанр: Драма
Страна: CCCP
Студия: Литовская киностудия
Год выпуска: 1974
Продолжительность: 01:12:47.479 (109187 frames)
Перевод: Советский дубляж – к/с «Ленфильм»
Оригинальная аудиодорожка: литовский
Режиссёр: Альмантас Грикявичюс / Almantas Grikevičius
В ролях:
Юозас Будрайтис / Juozas Budraitis … Пятрас Минкус - дублировал Александр Демьяненко
Регимантас Адомайтис / Regimantas Adomaitis … Повилас Байбокас - дублировал Эрнст Романов
Эугения Плешките / Eugenija Pleškytė … Мария, жена Повиласа - дублировала Галина Чигинская
Нийоле Лепешкайте / Nijolė Lepeškaitė … Ула, дочь лесничего - дублировала Нонна Грякалова
Ауримас Бабкаускас / Aurimas Babkauskas … Варнас, проворовавшийся прораб - дублировал Валерий Ольшанский
Бронюс Бабкаускас / Bronius Babkauskas … лесничий, отец Улы - дублировал Игорь Ефимов
Юозас Ярушявичюс / Juozas Jaruševičius … каменотес на кладбище - дублировал Александр Суснин
Владас Юркунас / Vladas Jurkūnas … завуч школы - дублировал Алексей Кожевников
Альгирдас Пинтукас / Algirdas Pintukas … милиционер
Дануте Криштопайтите / Danutė Krištopaitytė … невеста, подруга Улы
Ромуальдас Раманаускас / Romualdas Ramanauskas … жених
Броне Мария Брашките / Bronė Marija Braškytė … соседка Пятраса по коммунальной квартире
Ада Будрикайте / Ada Budrikaitė … соседка Пятраса по коммунальной квартире
Витаутас Жалакявичюс / Vytautas Žalakevičius … каменотёс на кладбище (нет в титрах)
Агне Грегораускайте / Agnė Gregorauskaitė … соседка Пятраса по коммунальной квартире
Эляна Пятраускене / Elena Žalinkevičaitė-Petrauskienė … соседка Пятраса по коммунальной квартире
Описание: В этом фильме мы наблюдаем, как странным образом реальность и творческие сомнения переплетаются в воображении человека. Пятрас - скульптор-неудачник, зарабатывает на жизнь преподаванием рисования в школе и изготовлением надгробий на кладбище. Самоуглублён и, как следствие, в быту весьма рассеян. Поэтому ему трудно найти общий язык с другими. Ему легко только с детьми. У его старого друга, молодого архитектора Повиласа тоже есть проблемы. Как примириться с окружающим миром, как найти точки соприкосновения в творчестве - герои фильма мучаются и ищут пути к цели…
Критики и режиссёры признали фильм провальным, неудачным, а показ реальной действительности – неприкрытый пессимизм и внутренняя неудовлетворённость людей искусства, их бытовая неустроенность и поиск средств к существованию, зачастую противоречащие подлиному искусству, посчитали неприемлемыми в период «развитого социализма», рассматривающего человека, как творческую высокоморальную личность. Посему фильм был выпущен небольшим тиражом копий и за пределами Литвы, кроме Москвы, нигде не демонстрировался в широком прокате.
Дополнительная информация:
Релиз:
Автор рипа: pmv
Большое спасибо за:
- звуковую аудиодорожку с советским дубляжом - Cheef mate
- предоставленную запись с литовского телеканала LRT+ HD Saulius Kintera / Luxembourg /
- помощь в подготовке релиза - trecioka
- синхронизацию аудиодорожки с советским дубляжем - pmv
* Фильм дублирован на киностудии «Ленфильм» в 1975 году и выпущен в прокат в 1976 году.
Режиссёр дубляжа: И.Гиндин
Звукооператор дубляжа: Б.Антонов
Роли дублировали: Александр Демьяненко, Эрнст Романов, Галина Чигинская, Нонна Грякалова, Валерий Ольшанский, Игорь Ефимов, Алексей Кожевников, Александр Суснин
* Автор сценария и художественный руководитель - Витаутас Жалакявичюс.
* В роли юбиляра на кладбище снялся Витаутас Жалакявичюс (на одном из скринов его можно увидеть).
IMDb = 6,9/10 (21) - https://www.imdb.com/title/tt0337133/
Кинопоиск = - (28) - https://www.kinopoisk.ru/film/43584/
ПРОСЬБА к СКАЧАВШИМ. НЕ УХОДИТЕ С РАЗДАЧИ, ПОМОГИТЕ ДРУГИМ СКАЧАТЬ!!!
Качество видео: SATRip
Формат видео: AVI
Видео: 720x528 (1.36:1), 25 fps, XviD build 73 ~2298 kbps avg, 0.24 bit/pixel
Аудио #1: 48 kHz, AC3 Dolby Digital, 2/0 (L,R) ch, ~192.00 kbps avg – советский дубляж
Аудио #2: 48 kHz, AC3 Dolby Digital, 2/0 (L,R) ch, ~192.00 kbps avg – литовский

MediaInfo

General
Complete name : D:\torrents\Садуто туто (1974, рус_дубл.+лит).avi
Format : AVI
Format/Info : Audio Video Interleave
File size : 1.37 GiB
Duration : 1 h 12 min
Overall bit rate : 2 698 kb/s
Writing application : VirtualDubMod 1.5.10.3 | www.virtualdub-fr.org || (build 2550/release)
Writing library : VirtualDubMod build 2550/release
Video
ID : 0
Format : MPEG-4 Visual
Format profile : Advanced Simple@L5
Format settings, BVOP : 2
Format settings, QPel : No
Format settings, GMC : No warppoints
Format settings, Matrix : Default (H.263)
Codec ID : XVID
Codec ID/Hint : XviD
Duration : 1 h 12 min
Bit rate : 2 300 kb/s
Width : 720 pixels
Height : 528 pixels
Display aspect ratio : 4:3
Frame rate : 25.000 FPS
Color space : YUV
Chroma subsampling : 4:2:0
Bit depth : 8 bits
Scan type : Progressive
Compression mode : Lossy
Bits/(Pixel*Frame) : 0.242
Stream size : 1.17 GiB (85%)
Writing library : XviD 73
Audio #1
ID : 1
Format : AC-3
Format/Info : Audio Coding 3
Format settings, Endianness : Big
Codec ID : 2000
Duration : 1 h 12 min
Bit rate mode : Constant
Bit rate : 192 kb/s
Channel(s) : 2 channels
Channel positions : Front: L R
Sampling rate : 48.0 kHz
Frame rate : 31.250 FPS (1536 SPF)
Bit depth : 16 bits
Compression mode : Lossy
Delay relative to video : 200 ms
Stream size : 99.9 MiB (7%)
Alignment : Split accross interleaves
Interleave, duration : 40 ms (1.00 video frame)
Interleave, preload duration : 500 ms
Service kind : Complete Main
Audio #2
ID : 2
Format : AC-3
Format/Info : Audio Coding 3
Format settings, Endianness : Big
Codec ID : 2000
Duration : 1 h 12 min
Bit rate mode : Constant
Bit rate : 192 kb/s
Channel(s) : 2 channels
Channel positions : Front: L R
Sampling rate : 48.0 kHz
Frame rate : 31.250 FPS (1536 SPF)
Bit depth : 16 bits
Compression mode : Lossy
Delay relative to video : 200 ms
Stream size : 100.0 MiB (7%)
Alignment : Split accross interleaves
Interleave, duration : 40 ms (1.00 video frame)
Interleave, preload duration : 500 ms
Service kind : Complete Main

Сравнение с раздачей Cheef mate от 07-Июня-2012

https://cybertorrent.ru/viewtopic.php?t=4087414
Cheef mate, DVB, 704x576, 1.22 GB < > CaCa48, SATrip, 720x528, 1.37 GB
http://screenshotcomparison.com/comparison/637
МОИ РАЗДАЧИ НА РУТРЕКЕРЕ: https://cybertorrent.ru/tracker.php?rid=27390064
[opentorrent.pro].t3243.torrent 
Торрент: Зарегистрирован [ 2019-05-31 17:13 ] · B33FFC89C5D8518AB3C65416F7B0BB69869ED343

Скачать .torrent

Скачать

14 KB

Статус: проверено
Скачан: 0 раз
Размер: 1,37 GB  ·  Тип торрента
terms.php
Показать сообщения:    

Текущее время: 11-Авг 16:32

Часовой пояс: UTC ± 0



Вы не можете начинать темы
Вы не можете отвечать на сообщения
Вы не можете редактировать свои сообщения
Вы не можете удалять свои сообщения
Вы не можете голосовать в опросах
Вы не можете прикреплять файлы к сообщениям
Вы можете скачивать файлы