Статистика раздачи
Размер:  2,16 GB   |    Зарегистрирован:  11 месяцев 25 дней   |    Скачан:  0 раз
DL-List: Нет

Полного источника не было: Никогда

 
     
 
 

солнышко ®

Пол:
Не указан
Стаж:
1 год 2 месяца
Сообщений:
723

Примадонна / Флоренс Фостер Дженкинс / Florence Foster Jenkins- Страна: Великобритания, Франция
Жанр: драма, комедия, биография, музыка
Год выпуска: 2016
Продолжительность: 01:50:12
Перевод: Профессиональный (дублированный) iTunes
Субтитры: русские, английские
Оригинальная аудиодорожка: английский
Режиссер: Стивен Фрирз / Stephen Frears
В ролях: Мэрил Стрип, Хью Грант, Саймон Хелберг, Ребекка Фергюсон (II), Нина Арианда, Стэнли Таунсенд, Аллан Кордунер, Кристиан МакКэй, Дэвид Хэйг, Джон Сешнс
Описание: Флоренс Фостер Дженкинс всегда мечтала петь на сцене. Вот только слухом и голосом природа ее не наделила. Но разве отсутствие таланта — это препятствие для человека, который изо всех сил стремится к исполнению мечты? А звание самой никудышной певицы на свете далеко не всем может испортить настроение!
Сэмпл: http://sendfile.su/1497223

Качество видео: BDRip-AVC (Примадонна / Флоренс Фостер Дженкинс 2016 BDRemux)
Формат видео: MKV
Видео: x264, 1152x482 (2.40:1) 24 fps, ~1975 kbps, 0,148 bit/pixel
Аудио 1: 48 kHz, AC3 Dolby Digital, 3/2 (L,C,R,l,r) + LFE ch, ~384 kbps [русский, iTunes Russia]
Аудио 2: 48 kHz, AC3 Dolby Digital, 3/2 (L,C,R,l,r) + LFE ch, ~448 kbps [английский]
Формат субтитров: softsub (SRT)

MediaInfo

General
Unique ID : 21231979938327187372416896358002704793 (0xFF9216E9EDB13DDEE99357BB217C199)
Format : Matroska
Format version : Version 4 / Version 2
File size : 2.16 GiB
Duration : 1h 50mn
Overall bit rate : 2 809 Kbps
Encoded date : UTC 2019-05-30 06:20:30
Writing application : mkvmerge v34.0.0 ('Sight and Seen') 64-bit
Writing library : libebml v1.3.7 + libmatroska v1.5.0
Video #1
ID : 1
Format : AVC
Format/Info : Advanced Video Codec
Format profile : High@L4.1
Format settings, CABAC : Yes
Format settings, ReFrames : 12 frames
Codec ID : V_MPEG4/ISO/AVC
Duration : 1h 50mn
Bit rate : 1 975 Kbps
Width : 1 152 pixels
Height : 482 pixels
Display aspect ratio : 2.40:1
Frame rate mode : Constant
Frame rate : 24.000 fps
Color space : YUV
Chroma subsampling : 4:2:0
Bit depth : 8 bits
Scan type : Progressive
Bits/(Pixel*Frame) : 0.148
Stream size : 1.52 GiB (70%)
Writing library : x264 core 157 r2935 545de2f
Encoding settings : cabac=1 / ref=12 / deblock=1:-3:-2 / analyse=0x3:0x133 / me=umh / subme=10 / psy=1 / psy_rd=1.00:0.00 / mixed_ref=1 / me_range=32 / chroma_me=1 / trellis=2 / 8x8dct=1 / cqm=0 / deadzone=21,11 / fast_pskip=0 / chroma_qp_offset=-2 / threads=6 / lookahead_threads=1 / sliced_threads=0 / nr=0 / decimate=1 / interlaced=0 / bluray_compat=0 / constrained_intra=0 / bframes=9 / b_pyramid=2 / b_adapt=2 / b_bias=0 / direct=1 / weightb=1 / open_gop=0 / weightp=2 / keyint=250 / keyint_min=23 / scenecut=40 / intra_refresh=0 / rc=crf / mbtree=0 / crf=18.3 / qcomp=0.65 / qpmin=0 / qpmax=69 / qpstep=4 / ip_ratio=1.40 / pb_ratio=1.30 / aq=3:0.90
Language : English
Default : Yes
Forced : No
Audio #2
ID : 2
Format : AC-3
Format/Info : Audio Coding 3
Mode extension : CM (complete main)
Format settings, Endianness : Big
Codec ID : A_AC3
Duration : 1h 50mn
Bit rate mode : Constant
Bit rate : 384 Kbps
Channel(s) : 6 channels
Channel positions : Front: L C R, Side: L R, LFE
Sampling rate : 48.0 KHz
Frame rate : 31.250 fps (1536 spf)
Compression mode : Lossy
Stream size : 303 MiB (14%)
Language : Russian
Default : Yes
Forced : No
Audio #3
ID : 3
Format : AC-3
Format/Info : Audio Coding 3
Mode extension : CM (complete main)
Format settings, Endianness : Big
Codec ID : A_AC3
Duration : 1h 50mn
Bit rate mode : Constant
Bit rate : 448 Kbps
Channel(s) : 6 channels
Channel positions : Front: L C R, Side: L R, LFE
Sampling rate : 48.0 KHz
Frame rate : 31.250 fps (1536 spf)
Compression mode : Lossy
Stream size : 353 MiB (16%)
Language : English
Default : No
Forced : No
Text #4
ID : 4
Format : UTF-8
Codec ID : S_TEXT/UTF8
Codec ID/Info : UTF-8 Plain Text
Duration : 1h 43mn
Bit rate : 95 bps
Count of elements : 1335
Stream size : 72.8 KiB (0%)
Language : Russian
Default : No
Forced : No
Text #5
ID : 5
Format : UTF-8
Codec ID : S_TEXT/UTF8
Codec ID/Info : UTF-8 Plain Text
Duration : 1h 43mn
Bit rate : 65 bps
Count of elements : 1375
Stream size : 49.6 KiB (0%)
Language : English
Default : No
Forced : No

лог

raw [info]: 1152x482p 1:1 @ 10000000/416667 fps (cfr)
x264 [info]: using SAR=1/1
x264 [info]: using cpu capabilities: MMX2 SSE2Fast SSSE3 SSE4.2 AVX XOP FMA3 BMI1
x264 [info]: profile High, level 4.1, 4:2:0, 8-bit
x264 [info]: frame I:1358 Avg QP:15.94 size: 78955
x264 [info]: frame P:31262 Avg QP:17.37 size: 23547
x264 [info]: frame B:126066 Avg QP:20.39 size: 6258
x264 [info]: consecutive B-frames: 1.3% 1.0% 5.8% 16.7% 18.4% 44.2% 5.7% 4.7% 1.3% 0.8%
x264 [info]: mb I I16..4: 3.7% 76.1% 20.2%
x264 [info]: mb P I16..4: 0.5% 6.5% 1.6% P16..4: 39.1% 25.0% 19.2% 0.9% 0.3% skip: 6.9%
x264 [info]: mb B I16..4: 0.0% 0.4% 0.1% B16..8: 38.5% 11.2% 2.9% direct: 3.2% skip:43.5% L0:43.8% L1:44.3% BI:11.9%
x264 [info]: 8x8 transform intra:74.5% inter:60.6%
x264 [info]: coded y,uvDC,uvAC intra: 85.4% 83.0% 63.4% inter: 16.7% 10.8% 2.0%
x264 [info]: i16 v,h,dc,p: 48% 11% 6% 35%
x264 [info]: i8 v,h,dc,ddl,ddr,vr,hd,vl,hu: 20% 8% 8% 8% 11% 12% 11% 11% 11%
x264 [info]: i4 v,h,dc,ddl,ddr,vr,hd,vl,hu: 32% 6% 4% 8% 11% 11% 10% 9% 9%
x264 [info]: i8c dc,h,v,p: 39% 23% 24% 14%
x264 [info]: Weighted P-Frames: Y:4.8% UV:2.7%
x264 [info]: ref P L0: 46.3% 10.2% 17.0% 6.2% 5.5% 3.7% 3.6% 1.7% 1.8% 1.4% 1.4% 1.2% 0.1% 0.0%
x264 [info]: ref B L0: 70.8% 11.6% 6.1% 3.2% 2.3% 1.9% 1.5% 0.9% 0.8% 0.5% 0.2%
x264 [info]: ref B L1: 93.3% 6.7%
x264 [info]: kb/s:1974.89
x264 [total]: encoded 158686 frames, 6.89 fps, 1974.89 kb/s

Скриншоты


[opentorrent.pro].t3252.torrent 
Торрент: Зарегистрирован [ 2019-05-31 17:13 ] · FE2CD0529BE5A761234C6BD937C5D309A97BF5E5

Скачать .torrent

Скачать

11 KB

Статус: проверено
Скачан: 0 раз
Размер: 2,16 GB  ·  Тип торрента
terms.php
Профиль [ЛС]
Показать сообщения:    

Текущее время: 26-Май 01:32

Часовой пояс: UTC ± 0



Вы не можете начинать темы
Вы не можете отвечать на сообщения
Вы не можете редактировать свои сообщения
Вы не можете удалять свои сообщения
Вы не можете голосовать в опросах
Вы не можете прикреплять файлы к сообщениям
Вы можете скачивать файлы