Статистика раздачи
Размер:  1,46 GB   |    Зарегистрирован:  1 год 2 месяца   |    Скачан:  0 раз
DL-List: Нет

Полного источника не было: Никогда

 
     
 
 

serzh ®

Пол:
Не указан
Стаж:
1 год 4 месяца
Сообщений:
442

Черная радуга / Black Rainbow
Страна: Великобритания
Жанр: Триллер
Год выпуска: 1989
Продолжительность: 01:37:58
Перевод: Авторский (одноголосый закадровый) Сергей Визгунов
Субтитры: нет
Оригинальная аудиодорожка: английский
Режиссер: Майк Ходжис / Mike Hodges
В ролях: Розанна Аркетт
Джейсон Робардс
Том Халс
Марк Джой
Рон Розенталь
Джон Беннс
Линда Пирс
Олек Крупа
Марти Терри
Эд Грейди
Описание: Женщина-медиум помогает людям общаться с их умершими возлюбленными. Но однажды, благодаря своему дару ясновидения, она оказывается свидетельницей жестокого убийства и узнает, кто будет следующей жертвой…
Доп. информация: За звуковую дорожку С. Визгунова спасибо m.mamichev , а также мне за синхрон дорожки
Сэмпл: https://yadi.sk/i/GgqSh-TGTXCkuQ
Качество видео: HDTVRip
Формат видео: AVI
Видео: XviD , 720x400(1.80:1), 25.000 fps, 1 731 Kbps
Аудио: AC3 , 48 kHz , 192.00 kbps avg , 2/0 (L,R) ch
Аудио2: AC3 , 48 kHz , 192.00 kbps avg , 2/0 (L,R) ch

MediaInfo

Complete name Чёрная радуга 1989 (Vizgunov).avi
Format : AVI
Format/Info : Audio Video Interleave
File size : 1.46 GiB
Duration : 1h 37mn
Overall bit rate : 2 129 Kbps
Writing application : VirtualDubMod 1.5.10.3 | www.virtualdub-fr.org || (build 2550/release)
Writing library : VirtualDubMod build 2550/release
Video
ID : 0
Format : MPEG-4 Visual
Format profile : Advanced Simple@L5
Format settings, BVOP : 1
Format settings, QPel : No
Format settings, GMC : No warppoints
Format settings, Matrix : Custom
Codec ID : XVID
Codec ID/Hint : XviD
Duration : 1h 37mn
Bit rate : 1 731 Kbps
Width : 720 pixels
Height : 400 pixels
Display aspect ratio : 16:9
Frame rate : 25.000 fps
Color space : YUV
Chroma subsampling : 4:2:0
Bit depth : 8 bits
Scan type : Progressive
Compression mode : Lossy
Bits/(Pixel*Frame) : 0.240
Stream size : 1.18 GiB (81%)
Writing library : XviD 73
Audio #1
ID : 1
Format : AC-3
Format/Info : Audio Coding 3
Mode extension : CM (complete main)
Format settings, Endianness : Big
Codec ID : 2000
Duration : 1h 37mn
Bit rate mode : Constant
Bit rate : 192 Kbps
Channel(s) : 2 channels
Channel positions : Front: L R
Sampling rate : 48.0 KHz
Frame rate : 31.250 fps (1536 spf)
Compression mode : Lossy
Delay relative to video : 50ms
Stream size : 135 MiB (9%)
Alignment : Split accross interleaves
Interleave, duration : 40 ms (1.00 video frame)
Interleave, preload duratio : 500 ms
Audio #2
ID : 2
Format : AC-3
Format/Info : Audio Coding 3
Mode extension : CM (complete main)
Format settings, Endianness : Big
Codec ID : 2000
Duration : 1h 37mn
Bit rate mode : Constant
Bit rate : 192 Kbps
Channel(s) : 2 channels
Channel positions : Front: L R
Sampling rate : 48.0 KHz
Frame rate : 31.250 fps (1536 spf)
Compression mode : Lossy
Delay relative to video : 50ms
Stream size : 135 MiB (9%)
Alignment : Split accross interleaves
Interleave, duration : 40 ms (1.00 video frame)
Interleave, preload duratio : 500 ms

Скриншоты

[opentorrent.pro].t3269.torrent 
Торрент: Зарегистрирован [ 2019-06-01 15:44 ] · 64E2FE15DC35EDB287681BB3BD43FCD6F21F8B61

Скачать .torrent

Скачать

15 KB

Статус: проверено
Скачан: 0 раз
Размер: 1,46 GB  ·  Тип торрента
terms.php
Профиль [ЛС]
Показать сообщения:    

Текущее время: 03-Авг 08:53

Часовой пояс: UTC ± 0



Вы не можете начинать темы
Вы не можете отвечать на сообщения
Вы не можете редактировать свои сообщения
Вы не можете удалять свои сообщения
Вы не можете голосовать в опросах
Вы не можете прикреплять файлы к сообщениям
Вы можете скачивать файлы