Статистика раздачи
Размер:  1,46 GB   |    Зарегистрирован:  11 месяцев 24 дня   |    Скачан:  0 раз
DL-List: Нет

Полного источника не было: Никогда

 
     
 
 

serzh ®

Пол:
Не указан
Стаж:
1 год 2 месяца
Сообщений:
442

Держись, Карл! / Karlchen, durchhalten
Страна: ГДР
Жанр: семейный, приключения
Год выпуска: 1979
Продолжительность: 01:32:35
Перевод: Одноголосый закадровый (Юрий Муравский)
Субтитры: нет
Оригинальная аудиодорожка: немецкий
Режиссер: Зигфрид Хартманн / Siegfried Hartmann
В ролях: Катя Парвла / Katja Paryla, Олаф Шмейхель / Olaf Schmechel, Розмари Берхольд / Rosemarie Bärhold, Герхард Бинерт / Gerhard Bienert, Гюнтер Вольф / Günter Wolf, Петер Бранг / Peter Brang и др.
Описание: Берлин. Середина 30-х годов. Власть захватили нацисты. У десятилетнего Карла, мальчишки из рабочей семьи, каникулы. Прекрасное время – ведь можно не ходить в школу. Но и со своей улицы ему, сыну коммуниста, уходить небезопасно. Фашисты убили его отца, и самому Карлу также уже пришлось столкнуться с суровой действительностью. К тому же он не догадывался, что в коварном плане нацистов ему отводилась важная роль. Его ждут тяжёлые испытания, от него требуются мужество, стойкость и осторожность.
Доп. информация: https://www.imdb.com/title/tt0322929/
Перевод - Юрий Муравский 2019
Cведение звука - Артвидео
Сэмпл: http://multi-up.com/1233290
Качество видео: DVDRip
Формат видео: AVI
Видео: XviD, 720x544 (4:3), 25.000 fps, 1862 kbps
Аудио: AC3, 48000 Hz, 2 ch, 192 kbps (русский)
Аудио 2: AC3, 48000 Hz, 2 ch, 192 kbps (немецкий)

MediaInfo

General
Complete name : I:\Рутрекер\Держись, Карл!\Karlchen, durchhalten (1979).avi
Format : AVI
Format/Info : Audio Video Interleave
File size : 1.46 GiB
Duration : 1h 32mn
Overall bit rate : 2 260 Kbps
Writing application : VirtualDubMod 1.5.10.2 (build 2542/release)
Writing library : VirtualDubMod build 2542/release
Video
ID : 0
Format : MPEG-4 Visual
Format profile : Advanced Simple@L5
Format settings, BVOP : 1
Format settings, QPel : No
Format settings, GMC : No warppoints
Format settings, Matrix : Default (MPEG)
Codec ID : XVID
Codec ID/Hint : XviD
Duration : 1h 32mn
Bit rate : 1 862 Kbps
Width : 720 pixels
Height : 544 pixels
Display aspect ratio : 4:3
Frame rate : 25.000 fps
Color space : YUV
Chroma subsampling : 4:2:0
Bit depth : 8 bits
Scan type : Progressive
Compression mode : Lossy
Bits/(Pixel*Frame) : 0.190
Stream size : 1.20 GiB (82%)
Writing library : XviD 1.2.1 (UTC 2008-12-04)
Audio #1
ID : 1
Format : AC-3
Format/Info : Audio Coding 3
Mode extension : CM (complete main)
Format settings, Endianness : Big
Codec ID : 2000
Duration : 1h 32mn
Bit rate mode : Constant
Bit rate : 192 Kbps
Channel(s) : 2 channels
Channel positions : Front: L R
Sampling rate : 48.0 KHz
Bit depth : 16 bits
Compression mode : Lossy
Stream size : 127 MiB (8%)
Alignment : Split accross interleaves
Interleave, duration : 40 ms (1.00 video frame)
Interleave, preload duration : 500 ms
Audio #2
ID : 2
Format : AC-3
Format/Info : Audio Coding 3
Mode extension : CM (complete main)
Format settings, Endianness : Big
Codec ID : 2000
Duration : 1h 32mn
Bit rate mode : Constant
Bit rate : 192 Kbps
Channel(s) : 2 channels
Channel positions : Front: L R
Sampling rate : 48.0 KHz
Bit depth : 16 bits
Compression mode : Lossy
Stream size : 127 MiB (8%)
Alignment : Split accross interleaves
Interleave, duration : 40 ms (1.00 video frame)
Interleave, preload duration : 500 ms

Скриншот c названием фильма

Скриншоты


[opentorrent.pro].t3271.torrent 
Торрент: Зарегистрирован [ 2019-06-01 15:44 ] · B528297885BC4A19F859046953005DB819A47734

Скачать .torrent

Скачать

15 KB

Статус: проверено
Скачан: 0 раз
Размер: 1,46 GB  ·  Тип торрента
terms.php
Профиль [ЛС]
Показать сообщения:    

Текущее время: 25-Май 16:29

Часовой пояс: UTC ± 0



Вы не можете начинать темы
Вы не можете отвечать на сообщения
Вы не можете редактировать свои сообщения
Вы не можете удалять свои сообщения
Вы не можете голосовать в опросах
Вы не можете прикреплять файлы к сообщениям
Вы можете скачивать файлы