Статистика раздачи
Размер:  4,08 GB   |    Зарегистрирован:  11 месяцев   |    Скачан:  0 раз
DL-List: Нет

Полного источника не было: Никогда

 
     
 
 

serzh ®

Пол:
Не указан
Стаж:
1 год 2 месяца
Сообщений:
442

Банзай | Banzai«Банзай - и не сомневайся!»- Страна: Франция
Студия: Renn Productions
Жанр: комедия, приключения
Год выпуска: 1983
Продолжительность: 01:42:56
Перевод 1: Профессиональный (дублированный) | Мосфильм
Перевод 2: Профессиональный (многоголосый закадровый)
Перевод 3: Профессиональный (многоголосый закадровый) | OPT Отдельно
Перевод 4: Профессиональный (многоголосый закадровый) | TBЦ Отдельно
Оригинальная аудиодорожка: французский
Субтитры: Rus, Eng-Режиссер:
Клод Зиди / Claude Zidi
В ролях:
Колюш | Coluche
Валери Мересс | Valérie Mairesse
Дидье Каминка, Марта Виллалонга, Ева Дарлан, Франсуа Перро, Жан-Мари Пролье, Забу Брайтмен, Изабель Аттали, Баарон-Описание:Мишель — страховой агент компании «Планета помощи» — любит стюардессу Изабель. Ждать до свадьбы им осталось недолго. Но взаимные невольные обманы могут эти планы сорвать.
Неуемный жизнелюбец, Мишель мчится по всему свету на помощь своим клиентам и попадает в забавнейшие приключения: в Африке он случайно вызволяет из плена революционного вождя, в Нью-Йорке его чуть не убивают гарлемские верзилы, а в Гонконге он оказывается на крючке наркодилеров…

--
IMDb: 5.80 (1310)
Sample All Tracks
Тип релиза: BDRip-AVC BDRemux
Контейнер: MKV
Видео: AVC 4300 kb/s 1024 x 436 (2.349) 23.976 fps
Аудио 1: Russian: 48 kHz, AC3, 3/2 (L,C,R,l,r) + LFE ch, ~384 kbps avg |Дубляж, Мосфильм [Со вставками MVO]|
Аудио 2: Russian: 48 kHz, AC3, 3/2 (L,C,R,l,r) + LFE ch, ~384 kbps avg |Многоголосый|
Аудио 3: French: AC-3 224 kb/s 2 channels, 48.0 kHz
====== Отдельно=====
Аудио 4: Russian: 48 kHz, AC3 Dolby Digital, 2/0 (L,R) ch, ~192 kbps avg |Многоголосый, ОРТ|
Аудио 5: Russian: 48 kHz, AC3 Dolby Digital, 2/0 (L,R) ch, ~192 kbps, avg |Многоголосый, ТВЦ|

MediaInfo | Log

Log

x264 [info]: frame I:1193 Avg QP:18.82 size: 82176
x264 [info]: frame P:32616 Avg QP:20.40 size: 40630
x264 [info]: frame B:114271 Avg QP:22.13 size: 16594
x264 [info]: consecutive B-frames: 1.6% 2.1% 6.1% 31.1% 20.8% 33.0% 3.4% 0.8% 0.4% 0.3% 0.3%
x264 [info]: mb I I16..4: 5.8% 75.7% 18.4%
x264 [info]: mb P I16..4: 0.2% 21.0% 2.4% P16..4: 24.8% 31.3% 15.9% 2.4% 0.2% skip: 1.8%
x264 [info]: mb B I16..4: 0.0% 4.4% 0.3% B16..8: 35.2% 21.6% 6.0% direct: 8.3% skip:24.2% L0:43.1% L1:41.1% BI:15.8%
x264 [info]: 8x8 transform intra:89.5% inter:57.9%
x264 [info]: direct mvs spatial:100.0% temporal:0.0%
x264 [info]: coded y,uvDC,uvAC intra: 96.7% 96.1% 86.3% inter: 42.3% 33.3% 8.8%
x264 [info]: i16 v,h,dc,p: 19% 22% 21% 38%
x264 [info]: i8 v,h,dc,ddl,ddr,vr,hd,vl,hu: 9% 8% 14% 9% 12% 12% 12% 11% 13%
x264 [info]: i4 v,h,dc,ddl,ddr,vr,hd,vl,hu: 34% 9% 4% 6% 10% 10% 10% 8% 9%
x264 [info]: i8c dc,h,v,p: 52% 17% 14% 17%
x264 [info]: Weighted P-Frames: Y:4.6% UV:3.1%
x264 [info]: ref P L0: 41.4% 13.9% 18.0% 5.9% 5.8% 3.5% 3.8% 1.9% 2.2% 1.6% 2.0% 0.1% 0.0%
x264 [info]: ref B L0: 74.7% 10.5% 5.1% 2.9% 2.0% 1.7% 1.3% 0.9% 0.6% 0.3%
x264 [info]: ref B L1: 95.8% 4.2%
x264 [info]: kb/s:4299.71
x264 [total]: encoded 148080 frames, 13.27 fps, 4299.71 kb/s
Format : Matroska
Format version : Version 4
File size : 3.81 GiB
Duration : 1 h 42 min
Overall bit rate : 5 295 kb/s
Movie name : Банзай / Banzai (1983)
Encoded date : UTC 2019-05-31 15:13:14
Writing application : mkvmerge v8.2.0 ('World of Adventure') 64bit
Writing library : libebml v1.3.1 + libmatroska v1.4.2
Cover : Yes
Attachments : cover.jpg
Video
ID : 1
Format : AVC
Format/Info : Advanced Video Codec
Format profile : High@L4.1
Format settings : CABAC / 11 Ref Frames
Format settings, CABAC : Yes
Format settings, Reference frames : 11 frames
Codec ID : V_MPEG4/ISO/AVC
Duration : 1 h 42 min
Bit rate : 4 300 kb/s
Width : 1 024 pixels
Height : 436 pixels
Display aspect ratio : 2.35:1
Frame rate mode : Constant
Frame rate : 23.976 (24000/1001) FPS
Color space : YUV
Chroma subsampling : 4:2:0
Bit depth : 8 bits
Scan type : Progressive
Bits/(Pixel*Frame) : 0.402
Stream size : 3.09 GiB (81%)
Title : Banzai (1983) [rutracker.org]
Writing library : x264 core 157 r2969 d4099dd
Encoding settings : cabac=1 / ref=11 / deblock=1:-3:-2 / analyse=0x3:0x133 / me=umh / subme=11 / psy=1 / psy_rd=1.00:0.05 / mixed_ref=1 / me_range=48 / chroma_me=1 / trellis=2 / 8x8dct=1 / cqm=0 / deadzone=21,11 / fast_pskip=0 / chroma_qp_offset=-3 / threads=12 / lookahead_threads=3 / sliced_threads=0 / nr=0 / decimate=1 / interlaced=0 / bluray_compat=0 / constrained_intra=0 / bframes=10 / b_pyramid=2 / b_adapt=2 / b_bias=0 / direct=3 / weightb=1 / open_gop=0 / weightp=2 / keyint=250 / keyint_min=23 / scenecut=40 / intra_refresh=0 / rc_lookahead=60 / rc=crf / mbtree=0 / crf=18.4 / qcomp=0.60 / qpmin=0 / qpmax=69 / qpstep=4 / vbv_maxrate=50000 / vbv_bufsize=62500 / crf_max=0.0 / nal_hrd=none / filler=0 / ip_ratio=1.40 / pb_ratio=1.30 / aq=3:0.90
Language : French
Default : Yes
Forced : No
Audio #1
ID : 2
Format : AC-3
Format/Info : Audio Coding 3
Commercial name : Dolby Digital
Codec ID : A_AC3
Duration : 1 h 42 min
Bit rate mode : Constant
Bit rate : 384 kb/s
Channel(s) : 6 channels
Channel layout : L R C LFE Ls Rs
Sampling rate : 48.0 kHz
Frame rate : 31.250 FPS (1536 SPF)
Bit depth : 16 bits
Compression mode : Lossy
Stream size : 283 MiB (7%)
Title : DUB, Мосфильм
Language : Russian
Service kind : Complete Main
Default : Yes
Forced : No
Audio #2
ID : 3
Format : AC-3
Format/Info : Audio Coding 3
Commercial name : Dolby Digital
Codec ID : A_AC3
Duration : 1 h 42 min
Bit rate mode : Constant
Bit rate : 384 kb/s
Channel(s) : 6 channels
Channel layout : L R C LFE Ls Rs
Sampling rate : 48.0 kHz
Frame rate : 31.250 FPS (1536 SPF)
Bit depth : 16 bits
Compression mode : Lossy
Stream size : 283 MiB (7%)
Title : MVO
Language : Russian
Service kind : Complete Main
Default : No
Forced : No
Audio #3
ID : 4
Format : AC-3
Format/Info : Audio Coding 3
Commercial name : Dolby Digital
Codec ID : A_AC3
Duration : 1 h 42 min
Bit rate mode : Constant
Bit rate : 224 kb/s
Channel(s) : 2 channels
Channel layout : L R
Sampling rate : 48.0 kHz
Frame rate : 31.250 FPS (1536 SPF)
Bit depth : 16 bits
Compression mode : Lossy
Stream size : 165 MiB (4%)
Title : Original
Language : French
Service kind : Complete Main
Default : No
Forced : No
Text #1
ID : 5
Format : UTF-8
Codec ID : S_TEXT/UTF8
Codec ID/Info : UTF-8 Plain Text
Duration : 1 h 39 min
Bit rate : 102 b/s
Count of elements : 1149
Stream size : 75.3 KiB (0%)
Title : Full
Language : Russian
Default : No
Forced : No
Text #2
ID : 6
Format : UTF-8
Codec ID : S_TEXT/UTF8
Codec ID/Info : UTF-8 Plain Text
Duration : 1 h 37 min
Bit rate : 47 b/s
Count of elements : 1282
Stream size : 33.8 KiB (0%)
Title : Full
Language : English
Default : No
Forced : No
Menu
00:00:00.000 : fr:Chapitre 01
00:07:32.034 : fr:Chapitre 02
00:14:52.725 : fr:Chapitre 03
00:23:06.885 : fr:Chapitre 04
00:33:15.076 : fr:Chapitre 05
00:41:36.869 : fr:Chapitre 06
00:50:56.303 : fr:Chapitre 07
01:01:00.907 : fr:Chapitre 08
01:09:54.732 : fr:Chapitre 09
01:18:07.391 : fr:Chapitre 10
01:26:48.578 : fr:Chapitre 11
01:35:09.161 : fr:Chapitre 12[/pre]

Скриншоты



[opentorrent.pro].t3275.torrent 
Торрент: Зарегистрирован [ 2019-06-01 15:44 ] · A5E63567020695051E27660ACC2A37C400C2F3DF

Скачать .torrent

Скачать

11 KB

Статус: проверено
Скачан: 0 раз
Размер: 4,08 GB  ·  Тип торрента
terms.php
Профиль [ЛС]
Показать сообщения:    

Текущее время: 31-Май 04:13

Часовой пояс: UTC ± 0



Вы не можете начинать темы
Вы не можете отвечать на сообщения
Вы не можете редактировать свои сообщения
Вы не можете удалять свои сообщения
Вы не можете голосовать в опросах
Вы не можете прикреплять файлы к сообщениям
Вы можете скачивать файлы