Статистика раздачи
Размер:  4,12 GB   |    Зарегистрирован:  1 год   |    Скачан:  0 раз
DL-List: Нет

Полного источника не было: Никогда

 
     
 
 

Гость ®

Пол:
Не указан

Обратной дороги нет (3 серии)
13.05.19 торрент обновлен, запись трансляции ТК "Звезда заменена записью трансляции ТК "Ретро". Преимущество на сравнении, продолжительность на 5 секунд больше, видимо за счет некорректной врезки рекламы на "Звезде", баннеры с названием фильма отсутствуют, смотрим 3-ю пару сравнения.
Жанр: военный
Год выпуска: 1970
Продолжительность: 01:05:26 + 01:07:19 + 01:05:55
Режиссёр: Григорий Липшиц
В ролях: Николай Олялин, Александр Январёв, Алексей Чернов, Игорь Ясулович, Николай Мерзликин, Галина Польских, Борис Юрченко, Лев Лемке, Валерий Малышев
Описание: Великая Отечественная война. Октябрь 1943 года. Майор Красной Армии Топорков, совершив побег из концлагеря, попадает в партизанский отряд. Он передаёт командиру отряда просьбу заключённых: в лагере готовится восстание, необходимо оружие.
Доп. информация: запись потока *.ts со спутника ABS-2, 75° в.д., ремукс в *.mkv программой VideoReDo.
Качество видео: DVB
Формат видео: MKV
Видео: MPEG2 Video, 720(768)x576 (4:3), 25,000 кадров/сек, 2783 Кбит/сек
Аудио: MPEG Audio, 48,0 КГц, 128 Кбит/сек, 2 канала

MediaInfo

Общее
Уникальный идентификатор : 27698030395249354816916101224023997405 (0x14D672554976BD95369A5FFC1D403BDD)
Полное имя : I:\НАШЕ_К_О\ОБРАТНОЙ ДОРОГИ НЕТ\ОБРАТНОЙ ДОРОГИ НЕТ 01 (RETRO).mkv
Формат : Matroska
Версия формата : Version 2
Размер файла : 1,36 Гбайт
Продолжительность : 1 ч. 5 м.
Режим общего битрейта : Переменный
Общий поток : 2970 Кбит/сек
Программа кодирования : Lavf52.64.2
Библиотека кодирования : Lavf52.64.2
Видео
Идентификатор : 1
Формат : MPEG Video
Версия формата : Version 2
Профиль формата : Main@Main
Параметр BVOP формата : Да
Параметр матрицы формата : Выборочная
Параметр GOP формата : Variable
Структура изображения : Frame
Идентификатор кодека : V_MPEG2
Идентификатор кодека/Информация : MPEG 1 or 2 Video
Продолжительность : 1 ч. 5 м.
Вид битрейта : Переменный
Битрейт : 2783 Кбит/сек
Максимальный битрейт : 2880 Кбит/сек
Ширина : 720 пикселей
Высота : 576 пикселей
Соотношение сторон : 4:3
Соотношение сторон в оригинале : 4:3
Режим частоты кадров : Постоянный
Частота кадров : 25,000 кадров/сек
Стандарт вещания : PAL
Цветовое пространство : YUV
Субдискретизация насыщенности : 4:2:0
Битовая глубина : 8 бит
Тип развёртки : Чересстрочная
Порядок развёртки : Верхнее поле первое
Метод сжатия : С потерями
Бит/(Пиксели*Кадры) : 0.268
Временной код первого кадра : 00:00:00:00
Оригинал временного кода : Group of pictures header
GOP, открыто/закрыто : Открыто
Размер потока : 1,27 Гбайт (94%)
Default : Да
Forced : Нет
Аудио
Идентификатор : 2
Формат : MPEG Audio
Версия формата : Version 1
Профиль формата : Layer 2
Идентификатор кодека : A_MPEG/L2
Идентификатор кодека/Подсказка : MP2
Продолжительность : 1 ч. 5 м.
Вид битрейта : Постоянный
Битрейт : 128 Кбит/сек
Каналы : 2 канала
Частота : 48,0 КГц
Метод сжатия : С потерями
Задержка видео : 15 мс.
Размер потока : 59,9 Мбайт (4%)
Язык : Russian
Default : Да
Forced : Нет
Общее
Уникальный идентификатор : 50076009286922385694029771127913359046 (0x25AC49E041478FC38DED2F7FC18EA6C6)
Полное имя : I:\НАШЕ_К_О\ОБРАТНОЙ ДОРОГИ НЕТ\ОБРАТНОЙ ДОРОГИ НЕТ 02 (RETRO).mkv
Формат : Matroska
Версия формата : Version 2
Размер файла : 1,40 Гбайт
Продолжительность : 1 ч. 7 м.
Режим общего битрейта : Переменный
Общий поток : 2970 Кбит/сек
Программа кодирования : Lavf52.64.2
Библиотека кодирования : Lavf52.64.2
Видео
Идентификатор : 1
Формат : MPEG Video
Версия формата : Version 2
Профиль формата : Main@Main
Параметр BVOP формата : Да
Параметр матрицы формата : Выборочная
Параметр GOP формата : Variable
Структура изображения : Frame
Идентификатор кодека : V_MPEG2
Идентификатор кодека/Информация : MPEG 1 or 2 Video
Продолжительность : 1 ч. 7 м.
Вид битрейта : Переменный
Битрейт : 2783 Кбит/сек
Максимальный битрейт : 2880 Кбит/сек
Ширина : 720 пикселей
Высота : 576 пикселей
Соотношение сторон : 4:3
Соотношение сторон в оригинале : 4:3
Режим частоты кадров : Постоянный
Частота кадров : 25,000 кадров/сек
Стандарт вещания : PAL
Цветовое пространство : YUV
Субдискретизация насыщенности : 4:2:0
Битовая глубина : 8 бит
Тип развёртки : Чересстрочная
Порядок развёртки : Верхнее поле первое
Метод сжатия : С потерями
Бит/(Пиксели*Кадры) : 0.268
Временной код первого кадра : 00:00:00:00
Оригинал временного кода : Group of pictures header
GOP, открыто/закрыто : Открыто
Размер потока : 1,31 Гбайт (94%)
Default : Да
Forced : Нет
Аудио
Идентификатор : 2
Формат : MPEG Audio
Версия формата : Version 1
Профиль формата : Layer 2
Идентификатор кодека : A_MPEG/L2
Идентификатор кодека/Подсказка : MP2
Продолжительность : 1 ч. 7 м.
Вид битрейта : Постоянный
Битрейт : 128 Кбит/сек
Каналы : 2 канала
Частота : 48,0 КГц
Метод сжатия : С потерями
Задержка видео : 15 мс.
Размер потока : 61,6 Мбайт (4%)
Язык : Russian
Default : Да
Forced : Нет
Общее
Уникальный идентификатор : 177092752690302644479669570307347024486 (0x853AD2D3202A61953249C0D11E2D8A66)
Полное имя : I:\НАШЕ_К_О\ОБРАТНОЙ ДОРОГИ НЕТ\ОБРАТНОЙ ДОРОГИ НЕТ 03 (RETRO).mkv
Формат : Matroska
Версия формата : Version 2
Размер файла : 1,37 Гбайт
Продолжительность : 1 ч. 5 м.
Режим общего битрейта : Переменный
Общий поток : 2971 Кбит/сек
Программа кодирования : Lavf52.64.2
Библиотека кодирования : Lavf52.64.2
Видео
Идентификатор : 1
Формат : MPEG Video
Версия формата : Version 2
Профиль формата : Main@Main
Параметр BVOP формата : Да
Параметр матрицы формата : Выборочная
Параметр GOP формата : Variable
Структура изображения : Frame
Идентификатор кодека : V_MPEG2
Идентификатор кодека/Информация : MPEG 1 or 2 Video
Продолжительность : 1 ч. 5 м.
Вид битрейта : Переменный
Битрейт : 2783 Кбит/сек
Максимальный битрейт : 2880 Кбит/сек
Ширина : 720 пикселей
Высота : 576 пикселей
Соотношение сторон : 4:3
Соотношение сторон в оригинале : 4:3
Режим частоты кадров : Постоянный
Частота кадров : 25,000 кадров/сек
Стандарт вещания : PAL
Цветовое пространство : YUV
Субдискретизация насыщенности : 4:2:0
Битовая глубина : 8 бит
Тип развёртки : Чересстрочная
Порядок развёртки : Верхнее поле первое
Метод сжатия : С потерями
Бит/(Пиксели*Кадры) : 0.268
Временной код первого кадра : 00:00:00:00
Оригинал временного кода : Group of pictures header
GOP, открыто/закрыто : Открыто
Размер потока : 1,28 Гбайт (94%)
Default : Да
Forced : Нет
Аудио
Идентификатор : 2
Формат : MPEG Audio
Версия формата : Version 1
Профиль формата : Layer 2
Идентификатор кодека : A_MPEG/L2
Идентификатор кодека/Подсказка : MP2
Продолжительность : 1 ч. 5 м.
Вид битрейта : Постоянный
Битрейт : 128 Кбит/сек
Каналы : 2 канала
Частота : 48,0 КГц
Метод сжатия : С потерями
Задержка видео : 7 мс.
Размер потока : 60,4 Мбайт (4%)
Язык : Russian
Default : Да
Forced : Нет
[opentorrent.pro].t3290.torrent 
Торрент: Зарегистрирован [ 2019-06-02 16:12 ] · E5EDAC673C9180D9428A40242FBAE7AFC9B06F30

Скачать .torrent

Скачать

21 KB

Статус: проверено
Скачан: 0 раз
Размер: 4,12 GB  ·  Тип торрента
terms.php
Показать сообщения:    

Текущее время: 04-Июн 20:12

Часовой пояс: UTC ± 0



Вы не можете начинать темы
Вы не можете отвечать на сообщения
Вы не можете редактировать свои сообщения
Вы не можете удалять свои сообщения
Вы не можете голосовать в опросах
Вы не можете прикреплять файлы к сообщениям
Вы можете скачивать файлы