Статистика раздачи
Размер:  6,04 GB   |    Зарегистрирован:  1 год 2 месяца   |    Скачан:  0 раз
DL-List: Нет
Сидов:  32  [  0 KB/s  ]   Личеров:  6  [  0 KB/s  ]  
 
     
 
 

Гость ®

Пол:
Не указан

Живая мина
Год выпуска: 2018
Производство: Россия, IKa film, «Киностудия КИТ»
Жанр: Боевик
Продолжительность: 10 x ~ 00:47:00
Субтитры: Нет
Режиссёр: Михаил Кабанов (II)
В ролях: Антон Васильев, Виктория Корлякова, Петар Зекавица, Александр Карпов (III), Арсений Робак, Мария Свирид, Святослав Астрамович, Виталий Ходин, Арсений Александров, Андрей Гаркунов
Описание: Владимир Фадеев жил по закону: «Фадеев всегда прав. Кто не прав – тот не Фадеев». Он был профессионалом своего дела. Ему были подвластны самые сложные взрывные устройства. Но однажды его самонадеянность сыграла с ним злую шутку. В Сирии, при разминировании автобуса с мирными жителями, он не учёл запасной взрыватель, и, после его команды «открыть двери», автобус взлетел на воздух. Фадеев навсегда запомнил лицо улыбающейся сирийской девушки из Красного Креста. Посттравматический синдром заставил его комиссоваться. Теперь он – выкинутый на обочину мирной жизни пьяница, подрабатывающий охранником. Но вот в музее, из которого его уволили за распитие спиртных напитков во время дежурства, происходит взрыв. И Фадеев вновь оказывается нужным: только он может понять, как действовал подрывник.
Релиз группа
Реклама: Сторонней рекламы нет!
Все раздачи сериала Живая мина


Качество: WEBRip
Формат: AVI
Видео кодек: XviD
Аудио кодек: AC3
Видео: 720x288, 720x304 (1.80:1), 25 fps, XviD build 73 ~1600 kbps avg, 0.231 bit/pixel
Аудио: 48 kHz, AC3 Dolby Digital, 2/0 (L,R) ch, ~192 kbps

Скриншоты

MediaInfo 1

General
Complete name : H:\fiiles x\Живая мина.(2018).WEBRip.Files-x\01.Живая мина.(2018).WEBRip.Files-x.avi
Format : AVI
Format/Info : Audio Video Interleave
File size : 608 MiB
Duration : 47mn 10s
Overall bit rate : 1 802 Kbps
Writing application : VirtualDubMod 1.5.10.3 | www.virtualdub-fr.org || (build 2550/release)
Writing library : VirtualDubMod build 2550/release
Video
ID : 0
Format : MPEG-4 Visual
Format profile : Advanced Simple@L5
Format settings, BVOP : 1
Format settings, QPel : No
Format settings, GMC : No warppoints
Format settings, Matrix : Custom
Codec ID : XVID
Codec ID/Hint : XviD
Duration : 47mn 10s
Bit rate : 1 600 Kbps
Width : 720 pixels
Height : 288 pixels
Display aspect ratio : 2.500
Frame rate : 25.000 fps
Color space : YUV
Chroma subsampling : 4:2:0
Bit depth : 8 bits
Scan type : Progressive
Compression mode : Lossy
Bits/(Pixel*Frame) : 0.309
Stream size : 540 MiB (89%)
Writing library : XviD 73
Audio
ID : 1
Format : AC-3
Format/Info : Audio Coding 3
Mode extension : CM (complete main)
Codec ID : 2000
Duration : 47mn 10s
Bit rate mode : Constant
Bit rate : 192 Kbps
Channel(s) : 2 channels
Channel positions : Front: L R
Sampling rate : 48.0 KHz
Bit depth : 16 bits
Compression mode : Lossy
Stream size : 64.8 MiB (11%)
Alignment : Split accross interleaves
Interleave, duration : 40 ms (1.00 video frame)
Interleave, preload duration : 500 ms

MediaInfo 2

General
Complete name : H:\fiiles x\Живая мина.(2018).WEBRip.Files-x\07.Живая мина.(2018).WEBRip.Files-x.avi
Format : AVI
Format/Info : Audio Video Interleave
File size : 648 MiB
Duration : 50mn 17s
Overall bit rate : 1 802 Kbps
Writing application : VirtualDubMod 1.5.10.3 | www.virtualdub-fr.org || (build 2550/release)
Writing library : VirtualDubMod build 2550/release
Video
ID : 0
Format : MPEG-4 Visual
Format profile : Advanced Simple@L5
Format settings, BVOP : 1
Format settings, QPel : No
Format settings, GMC : No warppoints
Format settings, Matrix : Custom
Codec ID : XVID
Codec ID/Hint : XviD
Duration : 50mn 17s
Bit rate : 1 600 Kbps
Width : 720 pixels
Height : 304 pixels
Display aspect ratio : 2.35:1
Frame rate : 25.000 fps
Color space : YUV
Chroma subsampling : 4:2:0
Bit depth : 8 bits
Scan type : Progressive
Compression mode : Lossy
Bits/(Pixel*Frame) : 0.292
Stream size : 575 MiB (89%)
Writing library : XviD 73
Audio
ID : 1
Format : AC-3
Format/Info : Audio Coding 3
Mode extension : CM (complete main)
Codec ID : 2000
Duration : 50mn 17s
Bit rate mode : Constant
Bit rate : 192 Kbps
Channel(s) : 2 channels
Channel positions : Front: L R
Sampling rate : 48.0 KHz
Bit depth : 16 bits
Compression mode : Lossy
Stream size : 69.1 MiB (11%)
Alignment : Split accross interleaves
Interleave, duration : 40 ms (1.00 video frame)
Interleave, preload duration : 500 ms

Внимание! Раздача ведётся путём добавления новых серий!

Внимание! Раздача ведётся путём добавления новых серий
Внимание! Раздача ведётся путём добавления новых серий; при каждом добавлении создётся новый торрент.
Чтобы начать докачку новой серии, пользователям необходимо сделать следующее:
1) остановить скачивание
2) удалить старый торрент у себя из клиента (старые серии удалять не надо)
3) скачать новый торрент и запустить его у себя в клиенте вместо старого, при этом указать клиенту путь в старую папку куда и должно происходить скачивание новых серий.
Ваш клиент при этом должен произвести хеширование (проверку) старой папки (если не производит сам - помогите ему сделать это), и будет докачивать только те серии которых у вас ещё нет. Старые серии при этом не удаляются, а продолжают раздаваться!
Eсли вы уже удалили старые серии, то предотвратить повторную закачку старых серий можно, отжав галочку в соответствовавших местах при запуске нового торрента.
[opentorrent.pro].t3293.torrent 
Торрент: Зарегистрирован [ 2019-06-02 16:12 ] · 6F806014DA58CE8BBDED0F11BAA964C26DD0F360

Скачать .torrent

Скачать

31 KB

Статус: проверено
Скачан: 0 раз
Размер: 6,04 GB  ·  Тип торрента
terms.php
Показать сообщения:    

Текущее время: 12-Авг 04:26

Часовой пояс: UTC ± 0



Вы не можете начинать темы
Вы не можете отвечать на сообщения
Вы не можете редактировать свои сообщения
Вы не можете удалять свои сообщения
Вы не можете голосовать в опросах
Вы не можете прикреплять файлы к сообщениям
Вы можете скачивать файлы