Статистика раздачи
Размер:  2,18 GB   |    Зарегистрирован:  11 месяцев 26 дней   |    Скачан:  0 раз
DL-List: Нет
Сидов:  1  [  0 KB/s  ]  
 
     
 
 

Гость ®

Пол:
Не указан

Горная болезнь
Год выпуска: 2019
Производство: Россия, «Epic Media»
Жанр: Мелодрама
Продолжительность: 4 x ~ 00:44:00
Субтитры: Нет
Режиссёр: Андрей Силкин
В ролях: Ольга Ломоносова, Пётр Баранчеев, Владимир Жеребцов, Екатерина Олькина, Анастасия Панина, Андрей Савостьянов, Мария Бортник, Евгений Славский, Ирина Гавра, Анастасия Магдалюк, Регина Полякова, Мария Бокова, Ирина Пулина, Денис Хлибов, Василий Габашвили, Лаша Рамишвили, Давит Школьский, Христофор Пилиев, Заза Чинчараули, Сергей Кения
Описание: Лучшие подруги Татьяна и Настя оказываются в ЗАГСе одновременно, но по разным поводам: Татьяна разводится, а Настя выходит замуж за врача-педиатра Павла. Настя и Павел познакомились на вечере блиц-свиданий и влюбились друг в друга с первого взгляда. И вот, спустя два месяца упоительного романа, они играют свадьбу, правда, Павел не знает, что у Насти есть кое-какие скелеты в шкафу. Пока Татьяна делит с бывшим мужем совместно нажитое имущество, Настя и Павел отправляются в медовый месяц в курортный городок. Спустя несколько дней Татьяна внезапно узнает, что Настя бесследно пропала…
Релиз группа
Реклама: Сторонней рекламы нет!
Все раздачи сериала Горная болезнь


Качество: WEBRip
Формат: AVI
Видео кодек: XviD
Аудио кодек: AC3
Видео: 720x400 (1.80:1), 25 fps, XviD build 73 ~1600 kbps avg, 0.222 bit/pixel
Аудио: 48 kHz, AC3 Dolby Digital, 2/0 (L,R) ch, ~192 kbps

Скриншоты

MediaInfo

General
Complete name : H:\fiiles x\ГОРНАЯ БОЛЕЗНЬ.2019.WEB-DLRip. Files-x\01. ГОРНАЯ БОЛЕЗНЬ.2019.WEB-DLRip. Files-x.avi
Format : AVI
Format/Info : Audio Video Interleave
File size : 566 MiB
Duration : 43mn 57s
Overall bit rate : 1 802 Kbps
Writing application : VirtualDubMod 1.5.10.3 | www.virtualdub-fr.org || (build 2550/release)
Writing library : VirtualDubMod build 2550/release
Video
ID : 0
Format : MPEG-4 Visual
Format profile : Advanced Simple@L5
Format settings, BVOP : 1
Format settings, QPel : No
Format settings, GMC : No warppoints
Format settings, Matrix : Custom
Codec ID : XVID
Codec ID/Hint : XviD
Duration : 43mn 57s
Bit rate : 1 600 Kbps
Width : 720 pixels
Height : 400 pixels
Display aspect ratio : 16:9
Frame rate : 25.000 fps
Color space : YUV
Chroma subsampling : 4:2:0
Bit depth : 8 bits
Scan type : Progressive
Compression mode : Lossy
Bits/(Pixel*Frame) : 0.222
Stream size : 503 MiB (89%)
Writing library : XviD 73
Audio
ID : 1
Format : AC-3
Format/Info : Audio Coding 3
Mode extension : CM (complete main)
Codec ID : 2000
Duration : 43mn 57s
Bit rate mode : Constant
Bit rate : 192 Kbps
Channel(s) : 2 channels
Channel positions : Front: L R
Sampling rate : 48.0 KHz
Bit depth : 16 bits
Compression mode : Lossy
Stream size : 60.4 MiB (11%)
Alignment : Split accross interleaves
Interleave, duration : 40 ms (1.00 video frame)
Interleave, preload duration : 500 ms

Внимание! Раздача ведётся путём добавления новых серий!

Внимание! Раздача ведётся путём добавления новых серий
Внимание! Раздача ведётся путём добавления новых серий; при каждом добавлении создётся новый торрент.
Чтобы начать докачку новой серии, пользователям необходимо сделать следующее:
1) остановить скачивание
2) удалить старый торрент у себя из клиента (старые серии удалять не надо)
3) скачать новый торрент и запустить его у себя в клиенте вместо старого, при этом указать клиенту путь в старую папку куда и должно происходить скачивание новых серий.
Ваш клиент при этом должен произвести хеширование (проверку) старой папки (если не производит сам - помогите ему сделать это), и будет докачивать только те серии которых у вас ещё нет. Старые серии при этом не удаляются, а продолжают раздаваться!
Eсли вы уже удалили старые серии, то предотвратить повторную закачку старых серий можно, отжав галочку в соответствовавших местах при запуске нового торрента.
[opentorrent.pro].t3294.torrent 
Торрент: Зарегистрирован [ 2019-06-02 16:12 ] · DB8BE1B05D65C8B8FEE800654322DF88B814FB18

Скачать .torrent

Скачать

12 KB

Статус: проверено
Скачан: 0 раз
Размер: 2,18 GB  ·  Тип торрента
terms.php
Показать сообщения:    

Текущее время: 28-Май 16:21

Часовой пояс: UTC ± 0



Вы не можете начинать темы
Вы не можете отвечать на сообщения
Вы не можете редактировать свои сообщения
Вы не можете удалять свои сообщения
Вы не можете голосовать в опросах
Вы не можете прикреплять файлы к сообщениям
Вы можете скачивать файлы