Статистика раздачи
Размер:  2,17 GB   |    Зарегистрирован:  11 месяцев 22 дня   |    Скачан:  0 раз
DL-List: Нет

Полного источника не было: Никогда

 
     
 
 

Гость ®

Пол:
Не указан

Ты – моё сомнение / Always Be My Maybe
Страна: США
Жанр: мелодрама, комедия
Год выпуска: 2019
Продолжительность: 01:42:21-Перевод: Профессиональный (дублированный) | НеваФильм
Субтитры: русские, английские
Оригинальная аудиодорожка: английский-Режиссер: Нахнатчка Кхан / Nahnatchka Khan-В ролях: Али Вонг, Рэндолл Парк, Киану Ривз, Мия Чех, Шарлин Йи, Дэниэл Дэ Ким, Каран Сони, Кейси Уилсон, Сьюзэн Парк, Мишель Бюто-Описание: Бывает такое, что дети, любящие друг друга в совсем раннем возрасте, однажды ссорятся и не разговаривают в течение длительных 15 лет. Они воссоединяются, когда становятся взрослыми: она — знаменитый шеф-повар, открывающий ресторан в Сан-Франциско, неожиданно сталкивается со своим потерянным любимым музыкантом, все еще живущим дома и работающим на своего отца. Старые чувства вспыхивают пожаром, но могут ли герои адаптироваться к взрослому миру друг друга и понять, что главное в их жизни – это их взаимная любовь?- -Качество видео: WEB-DLRip
Формат видео: AVI
Видео: 704x352 (2.00:1), 24.000 fps, XviD build 73 ~2265 kbps avg, 0.38 bit/pixel
Аудио 1: 48 kHz, AC3 Dolby Digital, 3/2 (L,C,R,l,r) + LFE ch, ~384 kbps | rus
Аудио 2: 48 kHz, AC3 Dolby Digital, 3/2 (L,C,R,l,r) + LFE ch, ~384 kbps | eng-Сэмпл-

MediaInfo

Код:Формат : AVI
Формат/Информация : Audio Video Interleave
Профиль формата : OpenDML
Размер файла : 2,17 Гбайт
Продолжительность : 1 ч. 42 м.
Общий поток : 3040 Кбит/сек
Название фильма : Ты – моё сомнение_2019_WEB-DLRip
Программа кодирования : VirtualDubMod 1.5.10.3 | www.virtualdub-fr.org || (build 2550/release)
Авторское право : порошков
Видео
Идентификатор : 0
Формат : MPEG-4 Visual
Профиль формата : Advanced Simple@L5
Настройки формата : BVOP1 / Custom Matrix
Параметр BVOP формата : 1
Параметр QPel формата : Нет
Параметр GMC формата : Без точки перехода
Параметр матрицы формата : Выборочная
Идентификатор кодека : XVID
Идентификатор кодека/Подсказка : XviD
Продолжительность : 1 ч. 42 м.
Битрейт : 2255 Кбит/сек
Ширина : 704 пикселя
Высота : 352 пикселя
Соотношение сторон : 2,000
Частота кадров : 24,000 кадра/сек
Цветовое пространство : YUV
Субдискретизация насыщенности : 4:2:0
Битовая глубина : 8 бит
Тип развёртки : Прогрессивная
Метод сжатия : С потерями
Бит/(Пиксели*Кадры) : 0.379
Размер потока : 1,61 Гбайт (74%)
Библиотека кодирования : XviD 73
Аудио #1
Идентификатор : 1
Формат : AC-3
Формат/Информация : Audio Coding 3
Коммерческое название : Dolby Digital
Идентификатор кодека : 2000
Продолжительность : 1 ч. 42 м.
Вид битрейта : Постоянный
Битрейт : 384 Кбит/сек
Каналы : 6 каналов
ChannelLayout : L R C LFE Ls Rs
Частота : 48,0 КГц
Частота кадров : 31,250 кадров/сек (1536 SPF)
Битовая глубина : 16 бит
Метод сжатия : С потерями
Размер потока : 281 Мбайт (13%)
Выравнивание : Разделение по промежуткам
Продолжительность промежутка : 42 мс. (1,00 видеокадр)
Время предзагрузки промежутка : 500 мс.
Заголовок : Rus
ServiceKind/String : Complete Main
Аудио #2
Идентификатор : 2
Формат : AC-3
Формат/Информация : Audio Coding 3
Коммерческое название : Dolby Digital
Идентификатор кодека : 2000
Продолжительность : 1 ч. 42 м.
Вид битрейта : Постоянный
Битрейт : 384 Кбит/сек
Каналы : 6 каналов
ChannelLayout : L R C LFE Ls Rs
Частота : 48,0 КГц
Частота кадров : 31,250 кадров/сек (1536 SPF)
Битовая глубина : 16 бит
Метод сжатия : С потерями
Размер потока : 281 Мбайт (13%)
Выравнивание : Разделение по промежуткам
Продолжительность промежутка : 42 мс. (1,00 видеокадр)
Время предзагрузки промежутка : 500 мс.
Заголовок : Eng
ServiceKind/String : Complete Main

Скриншоты


[opentorrent.pro].t3296.torrent 
Торрент: Зарегистрирован [ 2019-06-02 16:12 ] · 01AC30797F834379AF741FB49AA1E819530B9087

Скачать .torrent

Скачать

12 KB

Статус: проверено
Скачан: 0 раз
Размер: 2,17 GB  ·  Тип торрента
terms.php
Показать сообщения:    

Текущее время: 25-Май 04:58

Часовой пояс: UTC ± 0



Вы не можете начинать темы
Вы не можете отвечать на сообщения
Вы не можете редактировать свои сообщения
Вы не можете удалять свои сообщения
Вы не можете голосовать в опросах
Вы не можете прикреплять файлы к сообщениям
Вы можете скачивать файлы