Статистика раздачи
Размер:  1,43 GB   |    Зарегистрирован:  11 месяцев 27 дней   |    Скачан:  0 раз
DL-List: Нет
Сидов:  1  [  0 KB/s  ]  
 
     
 
 

Гость ®

Пол:
Не указан

Дэдвуд / Deadwood- Год выпуска: 2019
Страна: США
Жанр: вестерн
Продолжительность: 01:50:00
Перевод: Профессиональный (многоголосый закадровый) | Greb&Creative по заказу Amedia
Роли озвучивали: Иван Калинин, Александр Хорлин, Татьяна Шитова, Елена Греб
Субтитры: нет
Оригинальная аудиодорожка: нет
Режиссер: Даниэль Минахан / Daniel Minahan
В ролях: Тимоти Олифант, Иэн Макшейн, Молли Паркер, Паула Малкомсон, У. Эрл Браун, Дэйтон Калли, Ким Диккенс, Брэд Дуриф, Анна Ганн, Джон Хоукс
Описание: В 1889 году поселение Дэдвуд наконец получило статус города, но там по-прежнему царит атмосфера беззакония. Выдающийся телевестерн «Дэдвуд», закрытый после третьего сезона, возвращается в полнометражной версии, чтобы наконец довести историю до финала. По сюжету герои вестерна встречаются через десять лет после событий третьего сезона, чтобы отпраздновать признание родной Южной Дакоты официальным штатом. Новые времена диктуют свои правила, и в гонке за неизбежными изменениями возродится былое соперничество, а крепкие союзы дадут трещину.

Качество: WEB-DLRip | FGT
Контейнер: AVI
Видео: XviD, 720x360 (2.00:1), 23.976 fps, ~1459 kbps
Аудио: AC3, 48 kHz, 6 ch, 384 kbps

MediaInfo

General
Complete name : Deadwood.The.Movie.2019.XviD.AC3-EniaHD.avi
Format : AVI
Format/Info : Audio Video Interleave
File size : 1.43 GiB
Duration : 1 h 50 min
Overall bit rate : 1 854 kb/s
Video
ID : 0
Format : MPEG-4 Visual
Format profile : Simple@L5
Format settings, BVOP : No
Format settings, QPel : No
Format settings, GMC : No warppoints
Format settings, Matrix : Default (H.263)
Codec ID : XVID
Codec ID/Hint : XviD
Duration : 1 h 50 min
Bit rate : 1 459 kb/s
Width : 720 pixels
Height : 360 pixels
Display aspect ratio : 2.000
Frame rate : 23.976 (24000/1001) FPS
Color space : YUV
Chroma subsampling : 4:2:0
Bit depth : 8 bits
Scan type : Progressive
Compression mode : Lossy
Bits/(Pixel*Frame) : 0.235
Stream size : 1.12 GiB (79%)
Writing library : Lavc58.1.100
Audio
ID : 1
Format : AC-3
Format/Info : Audio Coding 3
Codec ID : 2000
Duration : 1 h 50 min
Bit rate mode : Constant
Bit rate : 384 kb/s
Channel(s) : 6 channels
Channel positions : Front: L C R, Side: L R, LFE
Sampling rate : 48.0 kHz
Frame rate : 31.250 FPS (1536 SPF)
Bit depth : 16 bits
Compression mode : Lossy
Stream size : 302 MiB (21%)
Alignment : Aligned on interleaves
Interleave, duration : 32 ms (0.77 video frame)
Service kind : Complete Main

Скриншоты

[opentorrent.pro].t3297.torrent 
Торрент: Зарегистрирован [ 2019-06-02 16:12 ] · 8432F3E974E2048848835E1AA737C45EE85B0294

Скачать .torrent

Скачать

57 KB

Статус: проверено
Скачан: 0 раз
Размер: 1,43 GB  ·  Тип торрента
terms.php
Показать сообщения:    

Текущее время: 29-Май 16:31

Часовой пояс: UTC ± 0



Вы не можете начинать темы
Вы не можете отвечать на сообщения
Вы не можете редактировать свои сообщения
Вы не можете удалять свои сообщения
Вы не можете голосовать в опросах
Вы не можете прикреплять файлы к сообщениям
Вы можете скачивать файлы