Статистика раздачи
Размер:  2,19 GB   |    Зарегистрирован:  11 месяцев 22 дня   |    Скачан:  0 раз
DL-List: Нет
Сидов:  3  [  0 KB/s  ]  
 
     
 
 

Гость ®

Пол:
Не указан

Битва за Землю / Captive StateГод выпуска: 2019
Страна: США
Жанр: фантастика, триллер
Продолжительность: 01:49:34
Перевод: профессиональный (многоголосый закадровый) CВ Студия
Субтитры: русские, английские
Режиссер: Руперт Уайатт / Rupert Wyatt
В ролях: Джон Гудмен, Вера Фармига, Эштон Сандерс, Джонатан Мэйджерс, Кевин Данн, Джеймс Рэнсон, Алан Рак, Мадлен Брюэр, Машин Ган Келли, Кевин Дж. О`Коннор
Описание: Мы всегда знали, что не одни в этом мире. Мы отправляли сигналы в надежде получить ответ. И нас услышали. За считанные часы пришельцы захватили Землю и установили свое правительство. Сотовая связь и интернет отключены, электронные библиотеки уничтожены. Большой инопланетный брат следит за каждым, его дроны-охотники днем и ночью патрулируют улицы новой Земли. Мы — последние, те, у кого нет имени, невидимые для системы. Сегодня мы вернем нашу планету.
Рейтинг MPAA: -Доп. информация:
IMDb: 7.0/10
Kinopoisk: 5.754/10
Sample-Качество: BDRip-AVC (исх.: Captive.State.2019.BDRemux.TeamHD-potroks)
Формат: MKV
Видео: H.264, 1108x464 (2.39:1), 2250 kbps, 23,976 fps
Аудио №1: Russian, AC3, 2ch, 48 kHz, 192 kbps (Многоголосый, CВ Студия)
Аудио №2: English, AC3, 6ch, 48 kHz, 448 kbps (Оригинал)
Субтитры №1: Russian, SRT
Субтитры №2: English, SRT-

Сравнение с исходником

Blu-ray......................................................Рип



Mediainfo

Format : Matroska
Format version : Version 4
File size : 2.19 GiB
Duration : 1 h 49 min
Overall bit rate : 2 856 kb/s
Movie name : Captive State (2019) BDRip
Encoded date : UTC 2019-06-02 09:14:18
Writing application : mkvmerge v34.0.0 ('Sight and Seen') 64-bit
Writing library : libebml v1.3.7 + libmatroska v1.5.0
Cover : Yes
Attachments : Cover.jpg
Video
ID : 1
Format : AVC
Format/Info : Advanced Video Codec
Format profile : High@L4.1
Format settings : CABAC / 14 Ref Frames
Format settings, CABAC : Yes
Format settings, ReFrames : 14 frames
Codec ID : V_MPEG4/ISO/AVC
Duration : 1 h 49 min
Bit rate : 2 214 kb/s
Width : 1 108 pixels
Height : 464 pixels
Display aspect ratio : 2.40:1
Frame rate mode : Constant
Frame rate : 23.976 (24000/1001) FPS
Color space : YUV
Chroma subsampling : 4:2:0
Bit depth : 8 bits
Scan type : Progressive
Bits/(Pixel*Frame) : 0.180
Stream size : 1.69 GiB (78%)
Writing library : x264 core 157 r2969 d4099dd
Encoding settings : cabac=1 / ref=14 / deblock=1:-3:-2 / analyse=0x3:0x133 / me=umh / subme=11 / psy=1 / psy_rd=1.05:0.03 / mixed_ref=1 / me_range=32 / chroma_me=1 / trellis=2 / 8x8dct=1 / cqm=0 / deadzone=21,11 / fast_pskip=0 / chroma_qp_offset=-3 / threads=14 / lookahead_threads=3 / sliced_threads=0 / nr=0 / decimate=1 / interlaced=0 / bluray_compat=0 / constrained_intra=0 / bframes=16 / b_pyramid=2 / b_adapt=2 / b_bias=0 / direct=1 / weightb=1 / open_gop=0 / weightp=2 / keyint=250 / keyint_min=23 / scenecut=40 / intra_refresh=0 / rc_lookahead=40 / rc=crf / mbtree=0 / crf=17.2 / qcomp=0.65 / qpmin=0 / qpmax=69 / qpstep=4 / vbv_maxrate=62500 / vbv_bufsize=78125 / crf_max=0.0 / nal_hrd=none / filler=0 / ip_ratio=1.40 / pb_ratio=1.30 / aq=2:0.90
Language : English
Default : Yes
Forced : No
Color range : Limited
Matrix coefficients : BT.709
Audio #1
ID : 2
Format : AC-3
Format/Info : Audio Coding 3
Commercial name : Dolby Digital
Codec ID : A_AC3
Duration : 1 h 49 min
Bit rate mode : Constant
Bit rate : 192 kb/s
Channel(s) : 2 channels
Channel layout : L R
Sampling rate : 48.0 kHz
Frame rate : 31.250 FPS (1536 SPF)
Bit depth : 16 bits
Compression mode : Lossy
Stream size : 150 MiB (7%)
Title : MVO, SV Studio
Language : Russian
Service kind : Complete Main
Default : Yes
Forced : No
Audio #2
ID : 3
Format : AC-3
Format/Info : Audio Coding 3
Commercial name : Dolby Digital
Codec ID : A_AC3
Duration : 1 h 49 min
Bit rate mode : Constant
Bit rate : 448 kb/s
Channel(s) : 6 channels
Channel layout : L R C LFE Ls Rs
Sampling rate : 48.0 kHz
Frame rate : 31.250 FPS (1536 SPF)
Bit depth : 16 bits
Compression mode : Lossy
Stream size : 351 MiB (16%)
Title : Original
Language : English
Service kind : Complete Main
Default : No
Forced : No
Text #1
ID : 4
Format : UTF-8
Codec ID : S_TEXT/UTF8
Codec ID/Info : UTF-8 Plain Text
Duration : 1 h 44 min
Bit rate : 60 b/s
Count of elements : 849
Stream size : 46.0 KiB (0%)
Language : Russian
Default : No
Forced : No
Text #2
ID : 5
Format : UTF-8
Codec ID : S_TEXT/UTF8
Codec ID/Info : UTF-8 Plain Text
Duration : 1 h 44 min
Bit rate : 35 b/s
Count of elements : 803
Stream size : 27.5 KiB (0%)
Language : English
Default : No
Forced : No
Menu
00:00:00.000 : :Chapter 1
00:06:25.385 : :Chapter 2
00:12:34.670 : :Chapter 3
00:18:45.999 : :Chapter 4
00:24:21.376 : :Chapter 5
00:26:55.113 : :Chapter 6
00:32:44.504 : :Chapter 7
00:38:27.596 : :Chapter 8
00:43:36.947 : :Chapter 9
00:47:17.626 : :Chapter 10
00:52:14.464 : :Chapter 11
01:00:01.598 : :Chapter 12
01:06:42.373 : :Chapter 13
01:11:29.576 : :Chapter 14
01:15:18.222 : :Chapter 15
01:19:40.859 : :Chapter 16
01:23:32.048 : :Chapter 17
01:31:46.542 : :Chapter 18
01:38:12.011 : :Chapter 19
01:45:00.711 : :Chapter 20
01:49:34.025 : :Chapter 21

x264 log

x264 [info]: frame I:1182 Avg QP:14.35 size: 66000
x264 [info]: frame P:33379 Avg QP:15.77 size: 23744
x264 [info]: frame B:123064 Avg QP:18.53 size: 7954
x264 [info]: consecutive B-frames: 2.4% 3.4% 10.5% 14.9% 15.7% 30.3% 6.7% 2.0% 2.7% 1.9% 2.2% 1.4% 2.1% 1.7% 1.0% 0.5% 0.5%
x264 [info]: mb I I16..4: 6.1% 76.4% 17.5%
x264 [info]: mb P I16..4: 1.0% 11.0% 1.4% P16..4: 30.8% 39.9% 12.1% 1.8% 0.1% skip: 1.8%
x264 [info]: mb B I16..4: 0.1% 0.9% 0.1% B16..8: 38.0% 21.6% 2.9% direct: 4.6% skip:31.8% L0:45.6% L1:45.2% BI: 9.3%
x264 [info]: 8x8 transform intra:80.7% inter:62.7%
x264 [info]: coded y,uvDC,uvAC intra: 90.2% 92.1% 80.9% inter: 20.5% 20.4% 6.6%
x264 [info]: i16 v,h,dc,p: 11% 16% 3% 70%
x264 [info]: i8 v,h,dc,ddl,ddr,vr,hd,vl,hu: 8% 10% 6% 10% 14% 13% 13% 12% 14%
x264 [info]: i4 v,h,dc,ddl,ddr,vr,hd,vl,hu: 8% 20% 3% 9% 14% 12% 12% 9% 12%
x264 [info]: i8c dc,h,v,p: 41% 25% 18% 16%
x264 [info]: Weighted P-Frames: Y:7.5% UV:4.8%
x264 [info]: ref P L0: 47.2% 6.8% 16.5% 6.8% 5.3% 3.9% 3.5% 1.9% 1.7% 1.4% 1.3% 1.2% 1.1% 1.1% 0.2% 0.0%
x264 [info]: ref B L0: 71.8% 11.5% 5.8% 3.0% 2.0% 1.6% 1.4% 0.8% 0.6% 0.5% 0.5% 0.3% 0.1%
x264 [info]: ref B L1: 93.7% 6.3%
x264 [info]: kb/s:2250.48
encoded 157625 frames, 17.96 fps, 2250.48 kb/s
-

Скриншоты


[opentorrent.pro].t3310.torrent 
Торрент: Зарегистрирован [ 2019-06-02 16:12 ] · 264D9F90E527213A0A9A47E4C0F027F8FC96161E

Скачать .torrent

Скачать

11 KB

Статус: проверено
Скачан: 0 раз
Размер: 2,19 GB  ·  Тип торрента
terms.php
Показать сообщения:    

Текущее время: 25-Май 08:01

Часовой пояс: UTC ± 0



Вы не можете начинать темы
Вы не можете отвечать на сообщения
Вы не можете редактировать свои сообщения
Вы не можете удалять свои сообщения
Вы не можете голосовать в опросах
Вы не можете прикреплять файлы к сообщениям
Вы можете скачивать файлы