Статистика раздачи
Размер:  1,46 GB   |    Зарегистрирован:  11 месяцев 22 дня   |    Скачан:  0 раз
DL-List: Нет
Сидов:  110  [  0 KB/s  ]   Личеров:  5  [  0 KB/s  ]  
 
     
 
 

Гость ®

Пол:
Не указан

-Капитан Марвел / Captain Marvel-«Быстрее. Выше. Сильнее»- -Страна: США, Австралия
Жанр: фантастика, боевик, приключения
Год выпуска: 2019
Продолжительность: 02:03:42-Перевод: Профессиональный (дублированный) iTunes
Субтитры: русские (форсированные)
Оригинальная аудиодорожка: нет-Режиссер: Анна Боден / Anna Boden, Райан Флек / Ryan Fleck-В ролях: Бри Ларсон, Сэмюэл Л. Джексон, Бен Мендельсон, Джуд Лоу, Аннетт Бенинг, Лашана Линч, Кларк Грегг, Рюн Темт, Джемма Чан, Альхенис Перес Сото, Джимон Хонсу, Ли Пейс, Чуку Моду, Мэттью Мехер, Акира Акбар, Марк Догерти, Стивен А. Чанг-Описание: После столкновения с враждующими инопланетными расами пилот военно-воздушных сил Кэрол Дэнверс обретает суперсилу и становится неуязвимой. Героине предстоит совладать со своими новыми способностями, чтобы противостоять могущественному врагу.- - -Качество видео: BDRip-AVC / Captain.Marvel.2019.BluRay.REMUX.1080p.AVC.DTS-HD.MA7.1-iFT
Формат видео: MKV-Видео: MPEG-4 AVC, 914x382 (2.40:1), 23.976 fps, ~1300 kbps avg, 0.155 bit/pixel
Аудио: 48 kHz, AC3 Dolby Digital, 3/2 (L,C,R,l,r) + LFE ch, ~384 kbps avg-

MediaInfo

Код:Complete name : D:\Раздача\Капитан Марвел (2019) BDRip-AVC_ivanes.mkv
Format : Matroska
Format version : Version 2
File size : 1.46 GiB
Duration : 2 h 3 min
Overall bit rate : 1 685 kb/s
Movie name : Капитан Марвел (2019) BDRip-AVC_ivanes
Encoded date : UTC 2019-06-02 13:48:19
Writing application : mkvmerge v4.4.0 ('Die Wiederkehr') сборка от Jan 3 2011 21:40:45
Writing library : libebml v1.0.0 + libmatroska v1.0.0
Cover : Yes
Attachments : cover.jpg
Video
ID : 1
Format : AVC
Format/Info : Advanced Video Codec
Format profile : High@L4.1
Format settings, CABAC : Yes
Format settings, RefFrames : 13 frames
Codec ID : V_MPEG4/ISO/AVC
Duration : 2 h 3 min
Bit rate : 1 300 kb/s
Width : 914 pixels
Height : 382 pixels
Display aspect ratio : 2.40:1
Frame rate mode : Constant
Frame rate : 23.976 (24000/1001) FPS
Color space : YUV
Chroma subsampling : 4:2:0
Bit depth : 8 bits
Scan type : Progressive
Bits/(Pixel*Frame) : 0.155
Stream size : 1.10 GiB (75%)
Title : Rip by ivanes
Writing library : x264 core 157 r2969 d4099dd
Encoding settings : cabac=1 / ref=13 / deblock=1:-3:-3 / analyse=0x3:0x113 / me=umh / subme=10 / psy=1 / psy_rd=1.00:0.00 / mixed_ref=1 / me_range=32 / chroma_me=1 / trellis=2 / 8x8dct=1 / cqm=0 / deadzone=21,11 / fast_pskip=0 / chroma_qp_offset=-2 / threads=12 / lookahead_threads=2 / sliced_threads=0 / nr=0 / decimate=1 / interlaced=0 / bluray_compat=0 / constrained_intra=0 / bframes=13 / b_pyramid=2 / b_adapt=2 / b_bias=0 / direct=1 / weightb=1 / open_gop=0 / weightp=2 / keyint=240 / keyint_min=23 / scenecut=40 / intra_refresh=0 / rc_lookahead=60 / rc=2pass / mbtree=0 / bitrate=1300 / ratetol=1.0 / qcomp=0.60 / qpmin=0 / qpmax=69 / qpstep=4 / cplxblur=20.0 / qblur=0.5 / vbv_maxrate=50000 / vbv_bufsize=62500 / nal_hrd=none / filler=0 / ip_ratio=1.40 / pb_ratio=1.30 / aq=1:1.00
Default : Yes
Forced : No
Statistics Tags Issue : mkvmerge v10.0.0 ('To Drown In You') 64bit 2019-06-02 13:46:22 / mkvmerge v4.4.0 ('Die Wiederkehr') сборка от Jan 3 2011 21:40:45 2019-06-02 13:48:19
FromStats_BitRate : 1299581
FromStats_Duration : 02:03:42.290000000
FromStats_FrameCount : 177957
FromStats_StreamSize : 1205733814
Audio
ID : 2
Format : AC-3
Format/Info : Audio Coding 3
Format settings, Endianness : Big
Codec ID : A_AC3
Duration : 2 h 3 min
Bit rate mode : Constant
Bit rate : 384 kb/s
Channel(s) : 6 channels
Channel positions : Front: L C R, Side: L R, LFE
Sampling rate : 48.0 kHz
Frame rate : 31.250 FPS (1536 SPF)
Bit depth : 16 bits
Compression mode : Lossy
Stream size : 340 MiB (23%)
Title : iTunes
Language : Russian
Service kind : Complete Main
Default : Yes
Forced : No
Text
ID : 3
Format : UTF-8
Codec ID : S_TEXT/UTF8
Codec ID/Info : UTF-8 Plain Text
Title : Forced
Language : Russian
Default : Yes
Forced : No

Скриншоты

[opentorrent.pro].t3315.torrent 
Торрент: Зарегистрирован [ 2019-06-02 16:12 ] · A77D85C520135EFD1620503A5ACD9B4044480E5B

Скачать .torrent

Скачать

15 KB

Статус: проверено
Скачан: 0 раз
Размер: 1,46 GB  ·  Тип торрента
terms.php
Показать сообщения:    

Текущее время: 25-Май 03:41

Часовой пояс: UTC ± 0



Вы не можете начинать темы
Вы не можете отвечать на сообщения
Вы не можете редактировать свои сообщения
Вы не можете удалять свои сообщения
Вы не можете голосовать в опросах
Вы не можете прикреплять файлы к сообщениям
Вы можете скачивать файлы