Статистика раздачи
Размер:  5,37 GB   |    Зарегистрирован:  1 год   |    Скачан:  0 раз
DL-List: Нет

Полного источника не было: Никогда

 
     
 
 

serzh ®

Пол:
Не указан
Стаж:
1 год 3 месяца
Сообщений:
442

Первая кровь / Рэмбо / First Blood [Советская прокатная копия]- Страна: США
Жанр: боевик, драма, приключения
Год выпуска: 1982
Продолжительность: 01:29:22-Перевод: Студийный (одноголосый закадровый) - Киностудия "Мосфильм", 1989. Текст читает Тимофей Спивак.
Субтитры: нет-Режиссер: Тед Котчефф / Ted Kotcheff
В ролях: Сильвестр Сталлоне, Ричард Кренна, Брайан Деннехи, Дэвид Карузо, Джек Старретт, Билл МакКинни, Крис Малки, Майкл Тэлботт, Джон МакЛайам, Альф Хамфриз, Дэвид Л. Кроули, Чарльз А. Тамбурро, Дэвид Питерсен, Патрик Стэк, Раймонд Стамм, Роберт Меткалф, Стив Даймополлос, Брюс Гринвуд, Дональд Адамс, Гэри Хезерингтон, Алекс Клинер, Крэйг Хьюстон, Дон МакКэй- | Релиз: -Описание: По роману Дэвида Моррелла.
Ветеран вьетнамской войны, бывший солдат-десантник, одинокий и не верящий никому Джон Рэмбо, скитается по дорогам Америки, безуспешно разыскивая фронтовых друзей. В результате провокации Уилла Тизла, чересчур уж рьяного шерифа небольшого городка, Рэмбо попадает в полицейский участок. Бежав из полиции, Джон прячется в лесу. Шериф приказывает поймать беглеца любой ценой. Защищаясь, Рэмбо развязывает настоящую партизанскую войну, входит в такой раж, что остановить его не могут ни полиция, ни национальная гвардия.-Доп. информация: За оцифровку VHS большое спасибо Raptorio Rio.-Семпл: http://sendfile.su/1497757-Тип релиза: VHSRip
Контейнер: MKV
Видео: PAL 720x576 (4:3) @ 768x576, 25.000 fps, MPEG-2 Video, ~8008 kbps, 0.772 bits/pixel
Аудио 1: Русский, 48.0 KHz, AC3, 1 ch, 192 kbps
Аудио 2: Русский, 48.0 KHz, FLAC, 1 ch, 400 kbps

MediaInfo

General
Unique ID : 286714138563529552828890343245944013495 (0xD7B3226E30B207A06CB41D36E01942B7)
Complete name : Первая кровь 1982 VO Мосфильм.mkv
Format : Matroska
Format version : Version 4
File size : 5.37 GiB
Duration : 1 h 29 min
Overall bit rate mode : Variable
Overall bit rate : 8 605 kb/s
Encoded date : UTC 2019-06-02 14:39:19
Writing application : mkvmerge v34.0.0 ('Sight and Seen') 64-bit
Writing library : libebml v1.3.7 + libmatroska v1.5.0
Video
ID : 1
Format : MPEG Video
Format version : Version 2
Format profile : Main@Main
Format settings : CustomMatrix / BVOP
Format settings, BVOP : Yes
Format settings, Matrix : Custom
Format settings, GOP : M=3, N=15
Format settings, picture structure : Frame
Codec ID : V_MPEG2
Codec ID/Info : MPEG 1 or 2 Video
Duration : 1 h 29 min
Bit rate mode : Variable
Bit rate : 8 008 kb/s
Maximum bit rate : 8 300 kb/s
Width : 720 pixels
Height : 576 pixels
Display aspect ratio : 4:3
Frame rate mode : Constant
Frame rate : 25.000 FPS
Standard : PAL
Color space : YUV
Chroma subsampling : 4:2:0
Bit depth : 8 bits
Scan type : Interlaced
Scan order : Top Field First
Compression mode : Lossy
Bits/(Pixel*Frame) : 0.772
Time code of first frame : 00:00:00:01
Time code source : Group of pictures header
GOP, Open/Closed : Open
GOP, Open/Closed of first frame : Closed
Stream size : 5.00 GiB (93%)
Default : Yes
Forced : No
Audio #1
ID : 2
Format : AC-3
Format/Info : Audio Coding 3
Commercial name : Dolby Digital
Codec ID : A_AC3
Duration : 1 h 29 min
Bit rate mode : Constant
Bit rate : 192 kb/s
Channel(s) : 1 channel
Channel layout : C
Sampling rate : 48.0 kHz
Frame rate : 31.250 FPS (1536 SPF)
Bit depth : 16 bits
Compression mode : Lossy
Stream size : 123 MiB (2%)
Title : Закадровый | "Мосфильм", 1989 | Текст читает Тимофей Спивак
Language : Russian
Service kind : Complete Main
Default : Yes
Forced : No
Audio #2
ID : 3
Format : FLAC
Format/Info : Free Lossless Audio Codec
Codec ID : A_FLAC
Duration : 1 h 29 min
Bit rate mode : Variable
Bit rate : 400 kb/s
Channel(s) : 1 channel
Sampling rate : 48.0 kHz
Frame rate : 11.719 FPS (4096 SPF)
Bit depth : 16 bits
Compression mode : Lossless
Stream size : 256 MiB (5%)
Title : Закадровый | "Мосфильм", 1989 | Текст читает Тимофей Спивак
Writing library : libFLAC 1.2.1 (UTC 2007-09-17)
Language : Russian
Default : No
Forced : No

Скриншоты

[opentorrent.pro].t3327.torrent 
Торрент: Зарегистрирован [ 2019-06-03 16:38 ] · BDD93195DF2DB3FAF8F03361F5F988029AE33E53

Скачать .torrent

Скачать

27 KB

Статус: проверено
Скачан: 0 раз
Размер: 5,37 GB  ·  Тип торрента
terms.php
Профиль [ЛС]
Показать сообщения:    

Текущее время: 02-Июл 09:58

Часовой пояс: UTC ± 0



Вы не можете начинать темы
Вы не можете отвечать на сообщения
Вы не можете редактировать свои сообщения
Вы не можете удалять свои сообщения
Вы не можете голосовать в опросах
Вы не можете прикреплять файлы к сообщениям
Вы можете скачивать файлы