Статистика раздачи
Размер:  1,39 GB   |    Зарегистрирован:  11 месяцев 24 дня   |    Скачан:  0 раз
DL-List: Нет

Полного источника не было: Никогда

 
     
 
 

Гость ®

Пол:
Не указан

-Дэдвуд / Deadwood-- -Страна: США
Жанр: вестерн
Год выпуска: 2019
Продолжительность: 01:50:00-Перевод: Профессиональный (многоголосый закадровый) Amedia
Субтитры: нет
Оригинальная аудиодорожка: нет-Режиссер: Даниэль Минахан / Daniel Minahan-В ролях: Тимоти Олифант, Иэн Макшейн, Молли Паркер, Паула Малкомсон, У. Эрл Браун, Дэйтон Калли, Ким Диккенс, Брэд Дуриф, Анна Ганн, Джон Хоукс-Описание: В 1889 году поселение Дэдвуд наконец получило статус города, но там по-прежнему царит атмосфера беззакония. Выдающийся телевестерн «Дэдвуд», закрытый после третьего сезона, возвращается в полнометражной версии, чтобы наконец довести историю до финала. По сюжету герои вестерна встречаются через десять лет после событий третьего сезона, чтобы отпраздновать признание родной Южной Дакоты официальным штатом. Новые времена диктуют свои правила, и в гонке за неизбежными изменениями возродится былое соперничество, а крепкие союзы дадут трещину.- - -Качество видео: WEB-DLRip-AVC / WEB-DL 1080p
Формат видео: MKV-Видео: MPEG-4 AVC, 900x450 (2.000), 23.976 fps, ~1381 kbps avg, 0.142 bit/pixel
Аудио: 48 kHz, AC3 Dolby Digital, 3/2 (L,C,R,l,r) + LFE ch, ~384 kbps avg-

MediaInfo

Код:Complete name : D:\Раздача\Дэдвуд (2019) WEB-DLRip-AVC_ivanes.mkv
Format : Matroska
Format version : Version 2
File size : 1.39 GiB
Duration : 1 h 50 min
Overall bit rate : 1 801 kb/s
Movie name : Дэдвуд (2019) WEB-DLRip-AVC_ivanes
Encoded date : UTC 2019-06-02 17:24:26
Writing application : mkvmerge v4.4.0 ('Die Wiederkehr') сборка от Jan 3 2011 21:40:45
Writing library : libebml v1.0.0 + libmatroska v1.0.0
Cover : Yes
Attachments : cover.jpg
Video
ID : 1
Format : AVC
Format/Info : Advanced Video Codec
Format profile : High@L4.1
Format settings, CABAC : Yes
Format settings, RefFrames : 14 frames
Codec ID : V_MPEG4/ISO/AVC
Duration : 1 h 50 min
Bit rate : 1 381 kb/s
Width : 900 pixels
Height : 450 pixels
Display aspect ratio : 2.000
Frame rate mode : Constant
Frame rate : 23.976 (24000/1001) FPS
Color space : YUV
Chroma subsampling : 4:2:0
Bit depth : 8 bits
Scan type : Progressive
Bits/(Pixel*Frame) : 0.142
Stream size : 1.06 GiB (77%)
Title : Rip by ivanes
Writing library : x264 core 157 r2969 d4099dd
Encoding settings : cabac=1 / ref=14 / deblock=1:-3:-3 / analyse=0x3:0x113 / me=umh / subme=10 / psy=1 / psy_rd=1.00:0.00 / mixed_ref=1 / me_range=32 / chroma_me=1 / trellis=2 / 8x8dct=1 / cqm=0 / deadzone=21,11 / fast_pskip=0 / chroma_qp_offset=-2 / threads=12 / lookahead_threads=3 / sliced_threads=0 / nr=0 / decimate=1 / interlaced=0 / bluray_compat=0 / constrained_intra=0 / bframes=14 / b_pyramid=2 / b_adapt=2 / b_bias=0 / direct=1 / weightb=1 / open_gop=0 / weightp=2 / keyint=240 / keyint_min=23 / scenecut=40 / intra_refresh=0 / rc_lookahead=60 / rc=crf / mbtree=0 / crf=19.3 / qcomp=0.60 / qpmin=0 / qpmax=69 / qpstep=4 / vbv_maxrate=50000 / vbv_bufsize=62500 / crf_max=0.0 / nal_hrd=none / filler=0 / ip_ratio=1.40 / pb_ratio=1.30 / aq=1:1.00
Default : Yes
Forced : No
Statistics Tags Issue : mkvmerge v10.0.0 ('To Drown In You') 64bit 2019-06-02 17:23:16 / mkvmerge v4.4.0 ('Die Wiederkehr') сборка от Jan 3 2011 21:40:45 2019-06-02 17:24:26
FromStats_BitRate : 1414958
FromStats_Duration : 01:50:06.975000000
FromStats_FrameCount : 158409
FromStats_StreamSize : 1168574556
Audio
ID : 2
Format : AC-3
Format/Info : Audio Coding 3
Format settings, Endianness : Big
Codec ID : A_AC3
Duration : 1 h 50 min
Bit rate mode : Constant
Bit rate : 384 kb/s
Channel(s) : 6 channels
Channel positions : Front: L C R, Side: L R, LFE
Sampling rate : 48.0 kHz
Frame rate : 31.250 FPS (1536 SPF)
Bit depth : 16 bits
Compression mode : Lossy
Stream size : 302 MiB (21%)
Title : Amedia
Language : Russian
Service kind : Complete Main
Default : Yes
Forced : No

Скриншоты

[opentorrent.pro].t3330.torrent 
Торрент: Зарегистрирован [ 2019-06-03 16:38 ] · A331E941047A059646C66E7F412C130516D31522

Скачать .torrent

Скачать

14 KB

Статус: проверено
Скачан: 0 раз
Размер: 1,39 GB  ·  Тип торрента
terms.php
Показать сообщения:    

Текущее время: 28-Май 12:17

Часовой пояс: UTC ± 0



Вы не можете начинать темы
Вы не можете отвечать на сообщения
Вы не можете редактировать свои сообщения
Вы не можете удалять свои сообщения
Вы не можете голосовать в опросах
Вы не можете прикреплять файлы к сообщениям
Вы можете скачивать файлы